Wedding Crashers 2005 DVDRip Hindi by imkhan -=[TDT]=--@Mastitorrents

seeders: 0
leechers: 0
updated: yesterday
Added on Dec 2, 2010 by mastitorrents19.76K in Movies > Dubbed Movies
Torrent verified. Downloaded 0 times.

Summary:
John Beckwith and Jeremy Grey, a pair of committed womanizers who sneak into weddings to take advantage of the romantic tinge in the air, find themselves at odds with one another when John meets and falls for Claire Cleary.
Written by thePiratePimp62.6K
report summary
Available in versions: 1080p720pHDRiPDVDRip
Wedding Crashers 2005 DVDRip Hindi by imkhan -=[TDT]=--@Mastitorrents (Size: 411.01 MB)
  Wedding Crashers 2005 DVDRip Hindi by imkhan -=[TDT]=-.mkv 403.16 MB
  Wedding Crashers 2005 Sample.mkv 7.85 MB

Description

[font=Georgia]General

Complete name : F:\Wedding Crashers 2005 DVDRip Hindi by imkhan -=[TDT]=--\Wedding Crashers 2005 DVDRip Hindi by imkhan -=[TDT]=-.mkv

Format : Matroska

File size : 403 MiB

Duration : 2h 1mn

Overall bit rate : 463 Kbps

Movie name : Wedding Crashers 2005 DVDRip Hindi by imkhan -=[TDT]=--

Encoded date : UTC 2010-11-25 08:06:26

Writing application : mkvmerge v4.2.0 ('No Talking') built on Jul 28 2010 18:38:23

Writing library : libebml v1.0.0 + libmatroska v1.0.0

Video

ID : 1

Format : AVC

Format/Info : Advanced Video Codec

Format profile : High@L4.0

Format settings, CABAC : Yes

Format settings, ReFrames : 3 frames

Muxing mode : Container profile=Unknown@4.0

Codec ID : V_MPEG4/ISO/AVC

Duration : 2h 1mn

Bit rate : 390 Kbps

Width : 560 pixels

Height : 240 pixels

Display aspect ratio : 2.35:1

Frame rate : 25.000 fps

Resolution : 24 bits

Colorimetry : 4:2:0

Scan type : Progressive

Bits/(Pixel*Frame) : 0.116

Stream size : 339 MiB (84%)

Title : imkhan

Writing library : x264 core 104 r1683 62997d6

Encoding settings : cabac=1 / ref=3 / deblock=1:0:0 / analyse=0x3:0x133 / me=umh / subme=7 / psy=1 / psy_rd=1.00:0.00 / mixed_ref=1 / me_range=16 / chroma_me=1 / trellis=1 / 8x8dct=1 / cqm=0 / deadzone=21,11 / fast_pskip=1 / chroma_qp_offset=-2 / threads=3 / sliced_threads=0 / nr=0 / decimate=1 / interlaced=0 / constrained_intra=0 / bframes=3 / b_pyramid=0 / b_adapt=1 / b_bias=0 / direct=1 / weightb=1 / open_gop=0 / weightp=2 / keyint=250 / keyint_min=25 / scenecut=40 / intra_refresh=0 / rc_lookahead=40 / rc=crf / mbtree=1 / crf=22.0 / qcomp=0.60 / qpmin=10 / qpmax=51 / qpstep=4 / vbv_maxrate=25000 / vbv_bufsize=25000 / crf_max=0.0 / ip_ratio=1.40 / aq=1:1.00 / nal_hrd=vbr

Language : Hindi

Audio

ID : 2

Format : MPEG Audio

Format version : Version 2

Format profile : Layer 3

Codec ID : A_MPEG/L3

Codec ID/Hint : MP3

Duration : 2h 1mn

Bit rate mode : Constant

Bit rate : 64.0 Kbps

Channel(s) : 2 channels

Sampling rate : 22.05 KHz

Resolution : 16 bits

Stream size : 55.8 MiB (14%)

Title : imkhan

Language : Hindi
[/font]




image

image

image

image

image

image

image

Sharing Widget


Download torrent
411.01 MB
seeders:0
leechers:0
Wedding Crashers 2005 DVDRip Hindi by imkhan -=[TDT]=--@Mastitorrents



To share this torrent use the code below and insert it into comments, status messages, forum posts or your signature.

Torrent: Wedding Crashers 2005 DVDRip...han -=[TDT]=--@Mastitorrents

Trackers

tracker name Status
udp://tracker.openbittorrent.com:80/announce
active
http://pow7.com/announce
active
http://t1.pow7.com/announce
active
udp://tracker.publicbt.com:80/announce
active
http://10.rarbg.com/announce
private
http://tracker.csze.com/announce
active
http://tracker.openbittorrent.com/announce
active
http://www.mastitorrents.com:30303/000058c97ffc12d1aa6ee3f12d18daee/announce
active
http://tracker.publicbt.com/announce
deleted
ĀµTorrent compatible trackers list

Locations

name
KickassTorrents
Fenopy
ThePirateBay
1337x
ExtraTorrent
Limetorrents
Limetorrents
Torrent hash: cad22cdd8ce48f9aaea27a5f7e0bee34a03d012e

All Comments

audio
8/10
video
8/10
please, leave only comments related to that torrent
or sign-in

0
JaY_Careless384 • 01 Apr 2012, 23:40
torrent downloaded
Show comment
audio: 9video: 9
gooo print nice audio
0
nakul_d_kesariya302 • 21 Nov 2011, 20:04
torrent downloaded
Show comment
sze k hisab se achchi hai.....
0
nakul_d_kesariya302 • 21 Nov 2011, 20:01
torrent downloaded
Show comment
audio: 10video: 10
nice work
0
anonymous • 30 Jul 2011, 07:34 Show comment
http://www.kat.ph/wedding-crashers-2005-brrip-720p-dual-audio-hin-eng-kck-t5332265.html
0
anonymous • 30 Jul 2011, 07:36 Show comment
hd copy....gr8 1
0
nakul_d_kesariya302 • 21 Nov 2011, 20:03
torrent downloaded
Show comment
seeds kam hai !!!
0
Qazi.Shahbaz4 • 12 Aug 2012, 15:44 Show comment
jab download kar lo gy to aap b seed karna

0
sazcybercafe357 • 07 Jan 2011, 05:51
torrent downloaded
Show comment
downloading on basis of sample... sample is good..
i will tell you soon about the quality
0
chandan_ryan212 • 19 Dec 2010, 10:49
torrent downloaded
Show comment
audio: 6video: 5
avg print!

User Opinions

Report a bug