Treasure Guards 2011 BRRip XviD Ac3 Feel-Free

seeders: 2
leechers: 1
updated: 1 week ago
Added on Feb 19, 2012 by feel-free20.28K in Movies
Torrent verified. Downloaded 0 times.

Summary:
During an excavation in the remote Jordanian desert archaeologist Victoria Carter discovers an ancient parchment, buried in the ruins of an ancient temple. It indicates the location of the long lost 'Seal of Solomon', which according to legend, by God himself to King Solomon was given. But this treasure is also sought by including her estranged father, the famous archaeologist Teddy Carter.
Written by Kommodus56.63K
report summary
Available in versions: HDRiPDVDDVDRip
Treasure Guards 2011 BRRip XviD Ac3 Feel-Free (Size: 1.35 GB)
  Torrent downloaded from extratorrent.com.txt 171 bytes
  Treasure Guards 2011 BRRip XviD Ac3 Feel-Free.avi 1.35 GB
  Treasure Guards 2011 BRRip XviD Ac3 Feel-Free.nfo 3.6 KB
  treasure-guards.jpg 56.25 KB
  vlcsnap-2012-02-19-09h02m30s25.png 333.27 KB
  vlcsnap-2012-02-19-09h02m44s171.png 184.38 KB
  vlcsnap-2012-02-19-09h03m24s33.png 411.96 KB
  vlcsnap-2012-02-19-09h03m43s216.png 333.04 KB

Description

image

Genre: Adventure
Language:English
IMDb:http://www.imdb.com/title/tt1786742/
Source:720p BluRay x264-PFa Thanks!
Encoder:Tony

Format : AVI
Format/Info : Audio Video Interleave
File size : 1.35 GiB
Duration : 1h 36mn
Overall bit rate : 1 994 Kbps


Video
ID : 0
Format : MPEG-4 Visual
Format profile : Advanced Simple@L5
Format settings, BVOP : 1
Format settings, QPel : No
Format settings, GMC : No warppoints
Format settings, Matrix : Default (H.263)
Codec ID : XVID
Codec ID/Hint : XviD
Duration : 1h 36mn
Bit rate : 1 537 Kbps
Width : 640 pixels
Height : 360 pixels
Display aspect ratio : 16:9
Frame rate : 23.976 fps
Color space : YUV
Chroma subsampling : 4:2:0
Bit depth : 8 bits
Scan type : Progressive
Compression mode : Lossy
Bits/(Pixel*Frame) : 0.278
Stream size : 1.04 GiB (77%)
Writing library : XviD 1.2.1 (UTC 2008-12-04)

Audio
ID : 1
Format : AC-3
Format/Info : Audio Coding 3
Mode extension : CM (complete main)
Codec ID : 2000
Duration : 1h 36mn
Bit rate mode : Constant
Bit rate : 448 Kbps
Channel(s) : 6 channels
Channel positions : Front: L C R, Side: L R, LFE
Sampling rate : 48.0 KHz
Bit depth : 16 bits
Compression mode : Lossy
Stream size : 311 MiB (22%)
Alignment : Aligned on interleaves
Interleave, duration : 42 ms (1.00 video frame)
Interleave, preload duration : 512 ms


Plot:
On a dig in the remote Jordanian desert, maverick archaeologist Victoria Carter (Anna Friel) discovers an ancient scroll buried in the ruins of an old temple. It is encrypted with the location of the long lost Seal of Solomon, which, according to legend, was given to King Solomon by God himself. But this mighty treasure is also being sought by, amongst others, Victorias estranged father, renowned archaeologist Teddy Carter, whos soon hot on its trail.

TRAILER:
[embed=youtube]http://www.youtube.com/watch?v=8pZa5IUBek4[/embed]


image
image
image
image

Greets:

CRYS,IMAGINE,LKRG,FXG,3Li,FLAWL3SS,TA,iLLUSiON,EMBER,HOPE,GooN,BBnRG,NOGRP,ETRG,BHRG,iLLUMiNATi,MiSTERE.ViSiON,DTRG SAFCuk009,LU,TheFalcon007,MYSTiC,PrisM,Noir,WBZ,LAP,Rx,Kingdom,SAFCuk009+Fabreezy,HDLiTE,TWiZTED,ExtraTorrentRG.ELEKTRI4KA,MAGNAT,CM8
And to all the other p2p grps past and present




Make sure its a real Feel-Free release @ http://extratorrent.com

Thanks to all who promotes release Feel-Free !!!

Related Torrents

torrent name size files age seed leech

Sharing Widget


Download torrent
1.35 GB
seeders:2
leechers:1
Treasure Guards 2011 BRRip XviD Ac3 Feel-Free

Trackers

tracker name Status
http://pow7.com/announce
outdated
udp://tracker.istole.it:80/announce
outdated
udp://tracker.openbittorrent.com:80/announce
outdated
udp://tracker.publicbt.com:80/announce
outdated
http://tracker.istole.it/announce
outdated
udp://tracker.1337x.org:80/announce
outdated
http://10.rarbg.com/announce
private
http://tracker.openbittorrent.com/announce
outdated
http://exodus.desync.com:6969/announce
blocked
http://tracker.publicbt.com/announce
deleted
http://tracker.novalayer.org:6969/announce
active
µTorrent compatible trackers list

Locations

name
KickassTorrents
ThePirateBay
ExtraTorrent
Torrent hash: D344948D0643E4748D9D2B16C55CADC1A963B5F7

All Comments

audio
8/10
video
8/10
please, leave only comments related to that torrent
or sign-in

0
bladereap3r5287 • 09 Mar 2014, 17:22
torrent downloaded
Show comment
audio: 9video: 9
thankx all smile
0
filthy$rich2276 • 06 Apr 2013, 15:50
torrent downloaded
Show comment
audio: 10video: 10
love it 320kbps
0
gigdud34 • 27 Sep 2012, 13:41
torrent downloaded
Show comment
very good
0
kumar3996 • 12 Jul 2012, 06:40
torrent downloaded
Show comment
audio: 8video: 9
xcellent movie....watch it
0
raamc4558021025 • 07 Jul 2012, 05:09
torrent downloaded
Show comment
audio: 10video: 10
brilliant print, this is a good movie
0
orlince422 • 26 Apr 2012, 14:54
torrent downloaded
Show comment
audio: 9video: 9
Many thank's
0
04tony92 • 22 Apr 2012, 22:35
torrent downloaded
Show comment
audio: 9video: 9
ok movie
Show More All
0
black_nighter15.77K • 15 Mar 2013, 07:44
torrent downloaded
Show comment
audio: 8video: 8

User Opinions

MoonChild13.52K, turkey dave2715, sonofa1561, William Riker1427, Captain.Seas.Cruelty1177, jacob_brack968, harleyson583, marijane8378, Glor020873, Spenc7766 ... And 44 more
sassy20032343, rothmans480, sidaal295, magicmushy228
Report a bug