The Net (1995) DVDRip Hindi Dubbed~{Destiny}

seeders: 0
leechers: 0
updated: 1 week ago
Added on Sep 10, 2011 in Movies > Dubbed Movies
Torrent verified. Downloaded 0 times.

Summary:
A computer programmer stumbles upon a conspiracy, putting her life and the lives of those around her in great danger.
Written by 5fingerdis62.44K
report summary
Available in versions: 1080p720pBDRipHDRiPDVDDVDRip
The Net (1995) DVDRip Hindi Dubbed~{Destiny} (Size: 455.12 MB)
  The Net (1995) DVDRip x264 Hindi Dubbed~{Destiny}.mkv 455.12 MB

Description






Release Title: The Net (1995)

Release Date: 28 July 1995 (USA)

Film Length: 114 minutes

Tagline: Her driver\'s license. Her credit cards. Her bank accounts. Her identity. DELETED.

Storyline: Angela Bennett\'s a software engineer type who works from home and has few friends outside of cyberspace. Taking her first vacation in years she becomes embroiled in a web (sic) of computer espionage.




Sandra Bullock ... Angela Bennett
Jeremy Northam ... Jack Devlin
Dennis Miller ... Dr. Alan Champion
Diane Baker ... Mrs. Bennett
Wendy Gazelle ... Ruth Marx
Ken Howard ... Michael Bergstrom
Ray McKinnon ... Dale Hessman
Daniel Schorr ... WNN Anchor
L. Scott Caldwell ... Public Defender
Robert Gossett ... Ben Phillips
Kristina Krofft ... Nurse #1
Juan García ... Resort Desk Clerk
Tony Perez ... Mexican Doctor
Margo Winkler ... Mrs. Raines
Gene Kirkwood ... Stan Whiteman




Genre: Action | Crime | Drama | Thriller
Format: Matroska
File size: 454mb
Duration: 1h 49mn
Movie name: The Net (1995) DVDRip x264 Hindi Dubbed~{Destiny}
Language: Hindi
Ripper: Destiny


http://www.imdb.com/title/tt0113957/



Video
ID : 1
Format : RealVideo 2
Codec ID : V_REAL/RV20
Codec ID/Info : RealVideo 2.0 aka G2 and RealVideo G2+SVT
Duration : 1h 49mn
Bit rate : 504 Kbps
Width : 480 pixels
Height : 272 pixels
Display aspect ratio : 16:9
Frame rate : 25.000 fps
Bits/(Pixel*Frame) : 0.155
Stream size : 396 MiB (87%)
Title : Destiny



Audio
ID : 2
Format : AC-3
Format/Info : Audio Coding 3
Mode extension : CM (complete main)
Muxing mode : Header stripping
Codec ID : A_AC3
Duration : 1h 49mn
Bit rate mode : Constant
Bit rate : 64.0 Kbps
Channel(s) : 2 channels
Channel positions : Front: L R
Sampling rate : 44.1 KHz
Bit depth : 16 bits
Compression mode : Lossy
Delay relative to video : 196ms
Stream size : 50.2 MiB (11%)
Title : Destiny
Language : Hindi







Sharing Widget


Download torrent
455.12 MB
seeders:0
leechers:0
The Net (1995) DVDRip Hindi Dubbed~{Destiny}

Trackers

tracker name Status
udp://tracker.publicbt.com:80/announce
outdated
udp://tracker.openbittorrent.com:80/announce
outdated
http://tracker.openbittorrent.com/announce
outdated
udp://tracker.1337x.org:80/announce
outdated
http://pow7.com/announce
outdated
http://tracker.token.ro/announce
outdated
http://10.rarbg.com/announce
private
http://fr33dom.h33t.com:3310/announce
deleted
http://tracker.publicbt.com/announce
deleted
http://9.rarbg.com:2710/announce
private
http://tracker.novalayer.org:6969/announce
active
udp://tracker.novalayer.org:6969/announce
active
µTorrent compatible trackers list

Locations

name
ExtraTorrent
Torrent hash: 0a82ab5f4227abe25ce9a8451a335fefbb02aec8

All Comments

audio
1/10
video
1/10
please, leave only comments related to that torrent
or sign-in

0
anonymous • 06 May 2012, 08:34 Show comment
pplzz seed........
0
anonymous • 15 Sep 2011, 02:13 Show comment
somebody seed plsssssssssssss
0
anonymous • 06 May 2012, 08:34 Show comment
audio: 1video: 1

User Opinions

Jmd0071762
Report a bug