The Lord Of The Rings Extended Editions Trilogy 1080p BluRay x26

seeders: 11
leechers: 42
Added on Jun 15, 2011 in Movies > Highres Movies
Torrent verified. Downloaded 102 times.

The Lord Of The Rings Extended Editions Trilogy 1080p BluRay x26 (Size: 77.96 GB)
  The.Lord.of.the.Rings.The.Fellowship.of.the.Ring.Extended.Editions.2001.1080p.BluRay.x264.DTS-WiK... 141 bytes
  The.Lord.of.the.Rings.The.Fellowship.of.the.Ring.Extended.Editions.2001.1080p.BluRay.x264.DTS-WiK... 22.96 GB
  The.Lord.of.the.Rings.The.Fellowship.of.the.Ring.Extended.Editions.2001.1080p.BluRay.x264.DTS-WiK... 122.33 KB
  The.Lord.of.the.Rings.The.Return.of.the.King.Extended.Editions.2003.1080p.BluRay.x264.DTS-WiKi.md5 137 bytes
  The.Lord.of.the.Rings.The.Return.of.the.King.Extended.Editions.2003.1080p.BluRay.x264.DTS-WiKi.mkv 29.52 GB
  The.Lord.of.the.Rings.The.Return.of.the.King.Extended.Editions.2003.1080p.BluRay.x264.DTS-WiKi.srt 119.53 KB
  The.Lord.of.the.Rings.The.Two.Towers.Extended.Editions.2002.1080p.BluRay.x264.DTS-WiKi.md5 129 bytes
  The.Lord.of.the.Rings.The.Two.Towers.Extended.Editions.2002.1080p.BluRay.x264.DTS-WiKi.mkv 25.14 GB
  The.Lord.of.the.Rings.The.Two.Towers.Extended.Editions.2002.1080p.BluRay.x264.DTS-WiKi.srt 132.8 KB
  Torrent downloaded from Demonoid.me.txt 46 bytes
  Sample

Description

Category: Others
Size: 83.7 GB
Ratio: 0 seeds, 0 leechers

Related Torrents

torrent name size files age seed leech

Sharing Widget


Download torrent
77.96 GB
seeders:11
leechers:42
The Lord Of The Rings Extended Editions Trilogy 1080p BluRay x26

Trackers

tracker name Status checked seeders leechers downloads
udp://open.demonii.com:1337/announce
active 29 Jun 2015 6 40 24
udp://tracker.openbittorrent.com:80/announce
active 29 Jun 2015 11 42 10
udp://tracker.publicbt.com:80/announce
outdated 20 Jan 2015 - - -
udp://tracker.istole.it:80/announce
outdated 20 Jan 2015 - - -
udp://tracker.ccc.de:80/announce
deleted 24 Jun 2014 - - -
ĀµTorrent compatible trackers list

Locations

name
Fenopy
ExtraTorrent
1337x
Torrent hash: 50f232319d93f562a99bb66086653fcd6beef54d

Top Comments

32
JakeDK99176 • 14 Aug 2011, 10:19
torrent downloaded
Would be brilliant if the download wasn't sitting at 8 weeks.
19
anonymous • 16 Jul 2011, 12:05
audio: 10video: 10
the quality (as it can me seen from the sample) is great!! the torrent itself is very slow, but it is worth it!
18
AlenTheGreat7206 • 07 Dec 2011, 20:55
torrent downloaded
audio: 10video: 10
Perfect quality and great trilogy

All Comments

audio
9/10
video
9/10
please, leave only comments related to that torrent
or sign-in
0
anonymous • 25 May 2015, 06:02 Show comment
audio: 1video: 9
i have no audio why is that ?
0
Santhih44 • 06 May 2015, 17:43
torrent downloaded
Show comment
audio: 10video: 10
just great!
0
anonymous • 02 May 2015, 03:35 Show comment
audio: 10video: 10
took 10 days to complete download, very good audio and video quality, subtitle out of sync but you can download from http://subscene.com/subtitles/the-lord-of-the-rings-the-return-of-the-king/english/871275 , http://subscene.com/subtitles/the-lord-of-the-rings-the-fellowship-of-the-ring/english/863931 , http://subscene.com/subtitles/the-lord-of-the-rings-the-two-towers/english/863849
0
AntarWerewolf1019 • 24 April 2015, 02:04
torrent downloaded
Show comment
audio: 10video: 10
Slow but totaly worth it!! :)
0
sompret331 • 22 March 2015, 01:11 Show comment
audio: 10video: 10
thanks, great qualty
0
anonymous • 17 March 2015, 19:58 Show comment
What is the Audio and Video Bitrate of the files?
4
sompret331 • 22 March 2015, 01:08 Show comment
fellowship of the rings :
Video
ID : 1
Format : AVC
Format/Info : Advanced Video Codec
Format profile : High@L4.1
Format settings, CABAC : Yes
Format settings, ReFrames : 5 frames
Codec ID : V_MPEG4/ISO/AVC
Duration : 3h 48mn
Bit rate : 12.9 Mbps
Width : 1 920 pixels
Height : 800 pixels
Display aspect ratio : 2.40:1
Frame rate mode : Constant
Frame rate : 23.976 fps
Color space : YUV
Chroma subsampling : 4:2:0
Bit depth : 8 bits
Scan type : Progressive
Bits/(Pixel*Frame) : 0.350
Stream size : 20.1 GiB (88%)
Language : English
Default : Yes
Forced : No

Audio
ID : 2
Format : DTS
Format/Info : Digital Theater Systems
Format profile : ES
Mode : 16
Format settings, Endianness : Big
Codec ID : A_DTS
Duration : 3h 48mn
Bit rate mode : Constant
Bit rate : 1 509 Kbps
Channel(s) : 7 channels / 6 channels
Channel positions : Front: L C R, Side: L R, Back: C, LFE / Front: L C R, Side: L R, LFE
Sampling rate : 48.0 KHz
Bit depth : 24 bits
Compression mode : Lossy
Stream size : 2.41 GiB (10%)


The Two Towers :
Video
ID : 1
Format : AVC
Format/Info : Advanced Video Codec
Format profile : High@L4.1
Format settings, CABAC : Yes
Format settings, ReFrames : 5 frames
Codec ID : V_MPEG4/ISO/AVC
Duration : 3h 55mn
Bit rate : 13.8 Mbps
Width : 1 906 pixels
Height : 798 pixels
Display aspect ratio : 2.40:1
Frame rate mode : Constant
Frame rate : 23.976 fps
Color space : YUV
Chroma subsampling : 4:2:0
Bit depth : 8 bits
Scan type : Progressive
Bits/(Pixel*Frame) : 0.378
Stream size : 22.2 GiB (88%)
Title : x264_L4.1 @ 13787Kbps

Audio
ID : 2
Format : DTS
Format/Info : Digital Theater Systems
Format profile : ES
Mode : 16
Format settings, Endianness : Big
Codec ID : A_DTS
Duration : 3h 55mn
Bit rate mode : Constant
Bit rate : 1 509 Kbps
Channel(s) : 7 channels / 6 channels
Channel positions : Front: L C R, Side: L R, Back: C, LFE / Front: L C R, Side: L R, LFE
Sampling rate : 48.0 KHz
Bit depth : 24 bits
Compression mode : Lossy
Stream size : 2.48 GiB (10%)
Title : Englisg DtTS @ 1.5Mbps
Language : English
Default : Yes
Forced : No

The Return Of The King :
ID : 1
Format : AVC
Format/Info : Advanced Video Codec
Format profile : High@L4.1
Format settings, CABAC : Yes
Format settings, ReFrames : 5 frames
Codec ID : V_MPEG4/ISO/AVC
Duration : 4h 23mn
Bit rate : 14.5 Mbps
Width : 1 920 pixels
Height : 796 pixels
Display aspect ratio : 2.40:1
Frame rate mode : Constant
Frame rate : 23.976 fps
Color space : YUV
Chroma subsampling : 4:2:0
Bit depth : 8 bits
Scan type : Progressive
Bits/(Pixel*Frame) : 0.397
Stream size : 26.2 GiB (89%)
Title : x264_L4.1 @ 14549Kbps
Language : English
Default : Yes
Forced : No

Audio
ID : 2
Format : DTS
Format/Info : Digital Theater Systems
Format profile : ES
Mode : 16
Format settings, Endianness : Big
Codec ID : A_DTS
Duration : 4h 23mn
Bit rate mode : Constant
Bit rate : 1 509 Kbps
Channel(s) : 7 channels / 6 channels
Channel positions : Front: L C R, Side: L R, Back: C, LFE / Front: L C R, Side: L R, LFE
Sampling rate : 48.0 KHz
Bit depth : 24 bits
Compression mode : Lossy
Stream size : 2.77 GiB (9%)
Title : English DTS @ 1.5Mbps
Language : English
Default : Yes
Forced : No

Last edited by sompret, 3 months ago


0
PacificaSFX2680 • 12 March 2015, 06:37
torrent downloaded
Show comment
audio: 10video: 10
Absolutely AWESOME share! Thank you VERY much!

All the Good Stuff: MKV, DTS and 1080P!!
0
hipermark2593 • 04 March 2015, 17:12
torrent downloaded
Show comment
audio: 9video: 10
no cinavia
tnx
1
stuffytick930.79K • 08 February 2015, 09:28
torrent downloaded
Show comment
The Subtitles sync is a bit late. otherwise the audit and video quality is excellent. Really a very good upload.

Thank you.
0
stuffytick930.79K • 05 February 2015, 05:39
torrent downloaded
Show comment
audio: 10video: 10
Great Quality. Thanks alot
Show More All

User Opinions

Naskal5555, schimmel1324, sugali1166, Schlizer1127, sk8ter_prick490, Audioidiot391, icarusflying250, naklow12185, kemikliet80, primopratsy71 ... And 493 more
biged45916, pesi73799, CEREBELLEM779, nynick278, carrnage147, kanaliboy108, southseasel31, lfeot10, erico_couto6, JerryLin2 ... And 41 more
Report a bug