The.Human.Centipede.II.Full.Sequence.2011.VODRiP.XviD-SiC

seeders: 2
leechers: 3
updated: 20 hours ago
Added on Oct 29, 2011 by ChrisDen194.11K in Movies
Torrent verified. Downloaded 10 times.

Summary:
Inspired by the fictional Dr. Heiter, disturbed loner Martin dreams of creating a 12-person centipede and sets out to realize his sick fantasy.
Written by TheStrength54.74K
report summary
Available in versions: 1080p720pBDRipHDRiPDVDRip
The.Human.Centipede.II.Full.Sequence.2011.VODRiP.XviD-SiC (Size: 1.4 GB)
  Torrent downloaded from Demonoid.me.txt 46 bytes
  sample.avi 37.22 MB
  The.Human.Centipede.II.Full.Sequence.2011.VODRiP.XviD-SiC.avi 1.37 GB
  The.Human.Centipede.II.Full.Sequence.2011.VODRiP.XviD-SiC.nfo 7.9 KB

Description

image

IMDB Link:
http://www.imdb.com/title/tt1530509/

Description:
Martin is a mentally disturbed loner who lives with his mother in a bleak housing project. He works the night shift as a security guard in an equally grim and foreboding underground parking complex. To escape his dreary existence, Martin loses himself in the fantasy world of the cult horror film The Human Centipede (First Sequence), fetishizing the meticulous surgical skills of the gifted Dr. Heiter, whose knowledge of the human gastrointestinal system inspires Martin to attempt the unthinkable. 

MediaInfo:
General
Complete name : EThe.Human.Centipede.II.Full.Sequence.2011.VODRiP.XviD-SiC.avi
Format : AVI
Format/Info : Audio Video Interleave
File size : 1.37 GiB
Duration : 1h 28mn
Overall bit rate : 2 226 Kbps

Video
ID : 0
Format : MPEG-4 Visual
Format profile : Advanced Simple@L5
Format settings, BVOP : 1
Format settings, QPel : No
Format settings, GMC : No warppoints
Format settings, Matrix : Default (H.263)
Codec ID : XVID
Codec ID/Hint : XviD
Duration : 1h 28mn
Bit rate : 1 770 Kbps
Width : 720 pixels
Height : 400 pixels
Display aspect ratio : 16:9
Frame rate : 25.000 fps
Color space : YUV
Chroma subsampling : 4:2:0
Bit depth : 8 bits
Scan type : Progressive
Compression mode : Lossy
Bits/(Pixel*Frame) : 0.246
Stream size : 1.09 GiB (80%)
Writing library : XviD 1.2.1 (UTC 2008-12-04)

Audio
ID : 1
Format : AC-3
Format/Info : Audio Coding 3
Codec ID : 2000
Duration : 1h 28mn
Bit rate mode : Constant
Bit rate : 448 Kbps
Channel(s) : 2 channels
Sampling rate : 44.1 KHz
Compression mode : Lossy
Stream size : 282 MiB (20%)
Alignment : Split accross interleaves
Interleave, duration : 70 ms (1.74 video frames)
Interleave, preload duration : 209 ms
Title : HC2_track_1


Screenshots:

image

Related Torrents

torrent name size files age seed leech

Sharing Widget


Download torrent
1.4 GB
seeders:1
leechers:4
The.Human.Centipede.II.Full.Sequence.2011.VODRiP.XviD-SiC



To share this torrent use the code below and insert it into comments, status messages, forum posts or your signature.

Torrent: The.Human.Centipede.II.Full.Sequence.2011.VODRiP.XviD-SiC

Trackers

tracker name Status
udp://tracker.openbittorrent.com:80/announce
active
http://tracker.openbittorrent.com/announce
active
http://inferno.demonoid.me:3408/announce
active
udp://tracker.publicbt.com:80/announce
active
http://exodus.desync.com:6969/announce
blocked
http://tracker.publicbt.com/announce
deleted
http://9.rarbg.com:2710/announce
private
µTorrent compatible trackers list

Locations

name
KickassTorrents
ThePirateBay
ExtraTorrent
Limetorrents
Torrent hash: 7F6DCD93EC05D360EC06828B1099E57AC022C54A

Top Comments

2
anonymous • 08 Nov 2011, 01:42
Watch A Serbian Film. Then you'll be able to say you've seen a movie more sick.

All Comments

audio
8/10
video
8/10
please, leave only comments related to that torrent
or sign-in

0
anonymous • 26 May 2015, 14:47 Show comment
I rate this as one of the best movies ever made.
0
kami469483 • 28 Jun 2014, 06:02
torrent downloaded
Show comment
audio: 8video: 8
gross sick man. great movie.
0
Moglee1387 • 09 Dec 2011, 17:11
torrent downloaded
Show comment
audio: 8video: 5
Video quality is very questionable.
0
myraza8614 • 07 Dec 2011, 08:02
torrent downloaded
Show comment
audio: 9video: 9
its terrible.. The Psycho character was perfect for such a mad movie.. ;)
0
Mobbosstony481 • 07 Dec 2011, 00:54
torrent downloaded
Show comment
audio: 10video: 10
amazing torrent great quality and audio and dont watch if you have a weak stomach!
0
Dariel_Grey185 • 25 Nov 2011, 09:54
torrent downloaded
Show comment
audio: 9video: 9
thank you for uploading this... very nice quality and very nice audio... and also unlike many critics from this movie, this movie is fantastic... I love this movie and also the first one, scary and entertaining.... thank you so much
0
rockon841046 • 21 Nov 2011, 20:56
torrent downloaded
Show comment
audio: 8video: 8
thankyou
0
billybonky47 • 20 Nov 2011, 13:48
torrent downloaded
Show comment
audio: 9video: 9
No script, no colour - brilliant!
0
trish45821 • 15 Nov 2011, 00:40
torrent downloaded
Show comment
audio: 9video: 9
great ul and the movie is what it is
Show More All
0
babisr6204 • 17 Dec 2011, 10:50
torrent downloaded
Show comment
audio: 8video: 8

User Opinions

Report a bug