The Host 2013 720p HDRip x264 AC3-JYK

seeders: 1
leechers: 0
updated: yesterday
Added on Apr 19, 2013 by unhide66.16K in Movies
Torrent verified. Downloaded 10 times.

Summary:
When an unseen enemy threatens mankind by taking over their bodies and erasing their memories, Melanie will risk everything to protect the people she cares most about, proving that love can conquer all in a dangerous new world.
Written by Mr.Gooner330.96K
report summary
The Host 2013 720p HDRip x264 AC3-JYK (Size: 2.7 GB)
  The Host 2013 720p HDRip x264 AC3-JYK.mkv 2.7 GB
  The Host 2013 720p HDRip x264 AC3-JYK.srt 61.39 KB
  Torrent downloaded from unhide-torrents.org.nfo 28 bytes
  Poster.jpg 230.78 KB

Description

image

http://unhide-torrents.org/

http://www.imdb.com/title/tt1517260/

Action | Adventure | Romance - 5 April 2013 (Bulgaria)
5,9 Your rating: -/10 Ratings: 5,9/10 from 11 818 users Metascore: 35/100
Reviews: 134 user | 173 critic | 28 from Metacritic.com
When an unseen enemy threatens mankind by taking over their bodies and erasing their memories, Melanie will risk everything to protect the people she cares most about, proving that love can conquer all in a dangerous new world.

SUBTiTLES.......: Bulgarian

Format : Matroska
Format version : Version 2
File size : 2.70 GiB
Duration : 2h 10mn
Overall bit rate : 2 959 Kbps
Encoded date : UTC 2013-04-18 16:44:43
Writing application : mkvmerge v6.1.0 ('Old Devil') built on Mar 2 2013 14:32:37
Writing library : libebml v1.3.0 + libmatroska v1.4.0

Video
ID : 1
Format : AVC
Format/Info : Advanced Video Codec
Format profile : High@L4.1
Format settings, CABAC : Yes
Format settings, ReFrames : 4 frames
Codec ID : V_MPEG4/ISO/AVC
Duration : 2h 10mn
Bit rate : 2 750 Kbps
Width : 1 280 pixels
Height : 528 pixels
Display aspect ratio : 2.40:1
Frame rate : 29.970 fps
Color space : YUV
Chroma subsampling : 4:2:0
Bit depth : 8 bits
Scan type : Progressive
Bits/(Pixel*Frame) : 0.136
Stream size : 2.47 GiB (92%)
Writing library : x264 core 125 r2200bm 999b753
Encoding settings : cabac=1 / ref=3 / deblock=1:-1:-1 / analyse=0x3:0x113 / me=hex / subme=7 / psy=1 / psy_rd=1.00:0.15 / mixed_ref=1 / me_range=16 / chroma_me=1 / trellis=1 / 8x8dct=1 / cqm=0 / deadzone=21,11 / fast_pskip=1 / chroma_qp_offset=-3 / threads=3 / lookahead_threads=1 / sliced_threads=0 / nr=0 / decimate=1 / interlaced=0 / bluray_compat=0 / constrained_intra=0 / bframes=3 / b_pyramid=2 / b_adapt=1 / b_bias=0 / direct=1 / weightb=1 / open_gop=0 / weightp=2 / keyint=250 / keyint_min=25 / scenecut=40 / intra_refresh=0 / rc_lookahead=40 / rc=abr / mbtree=1 / bitrate=2750 / ratetol=1.0 / qcomp=0.60 / qpmin=0 / qpmax=69 / qpstep=4 / ip_ratio=1.40 / aq=1:1.00

Audio
ID : 2
Format : AC-3
Format/Info : Audio Coding 3
Mode extension : CM (complete main)
Codec ID : A_AC3
Duration : 2h 10mn
Bit rate mode : Constant
Bit rate : 192 Kbps
Channel(s) : 2 channels
Channel positions : Front: L R
Sampling rate : 48.0 KHz
Bit depth : 16 bits
Compression mode : Lossy
Stream size : 179 MiB (6%)
Language : English


image image image image

Related Torrents

torrent name size files age seed leech

Sharing Widget


Download torrent
2.7 GB
seeders:4
leechers:1
The Host 2013 720p HDRip x264 AC3-JYK



To share this torrent use the code below and insert it into comments, status messages, forum posts or your signature.

Torrent: The Host 2013 720p HDRip x264 AC3-JYK

Trackers

tracker name Status
udp://9.rarbg.me:2710/announce
active
udp://tracker.publicbt.com:80/announce
active
udp://tracker.istole.it:80/announce
active
udp://tracker.openbittorrent.com:80/announce
active
udp://9.rarbg.com:2710/announce
active
udp://www.h33t.com:3310/announce
deleted
udp://fr33dom.h33t.com:3310/announce
deleted
udp://fr33domtracker.h33t.com:3310/announce
deleted
udp://ipv4.tracker.harry.lu:80/announce
active
ĀµTorrent compatible trackers list

Locations

name
KickassTorrents
ExtraTorrent
Torrent hash: A3BCE4889B6E465037C8FBC15634D1E64AF734E4

All Comments

audio
0/10
video
0/10
please, leave only comments related to that torrent
or sign-in


User Opinions

Report a bug