The Grey 2012 SCR X264 AC3 CrEwSaDe

seeders: 2
leechers: 1
updated: 1 week ago
Added on Feb 18, 2012 in Movies
Torrent verified. Downloaded 2 times.

  • add The Grey to bookmarks
  • Release date: 11 December 2011
  • Writers: Joe Carnahan (screenplay), Ian Mackenzie Jeffers (screenplay), Ian Mackenzie Jeffers (short story "Ghost Walker")
  • Language: English
Summary:
After their plane crashes in Alaska, six oil workers are led by a skilled huntsman to survival, but a pack of merciless wolves haunts their every step.
Written by DeadShot10144.17K
report summary
The Grey 2012 SCR X264 AC3 CrEwSaDe (Size: 852.07 MB)
  The.Grey.2012.SCR.X264.AC3.CrEwSaDe.Sample1.mkv 4.84 MB
  The.Grey.2012.SCR.X264.AC3.CrEwSaDe.Sample2.mkv 8.85 MB
  The.Grey.2012.SCR.X264.AC3.CrEwSaDe.mkv 837.12 MB
  The.Grey.2012.SCR.X264.AC3.CrEwSaDe.nfo 11.67 KB
  Torrent downloaded from AhaShare.com.txt 58 bytes
  Torrent downloaded from Demonoid.me.txt 46 bytes
  Torrent downloaded from extratorrent.com.txt 40 bytes
  Torrent downloaded from Rarbg.com.txt 33 bytes
  torrent downloaded from H33T.com.txt 32 bytes
  Screens

Description

image


**The.Grey.SCR.X264.AC3.CrEwSaDe **


Encoder ..........: Crazycook and swag
Video Codec.......: AVC
Video Bitrate.....: 871 kbs
Audio Codec.......: AC3
Audio Bitrate.....: 128 kbs, 2 channels
Resolution........: 720X304, 23.976 fps
Runtime...........: 1h 56mn
Release Date......: 18 Feb. 2012
Theatre Date......: 26 January 2012
Language..........: English
Subtitles.........: n/a
IMDB Rating.......: 7.7 / 10
IMDb URL..........: http://www.imdb.com/title/tt1601913/

_______________________________________________________________________________

General
Unique ID : 182760571206380635485645594350611691602 (0x897E67DA3FCB2A86BC492F19F4897852)
Complete name : D:\torrent data\The.Grey.2012.SCR.X264.AC3.CrEwSaDe\The.Grey.2012.SCR.X264.AC3.CrEwSaDe.mkv
Format : Matroska
Format version : Version 2
File size : 837 MiB
Duration : 1h 56mn
Overall bit rate : 1 001 Kbps
Encoded date : UTC 2012-02-18 08:28:40
Writing application : mkvmerge v5.3.0 ('I could have danced') built on Feb 9 2012 10:38:07
Writing library : libebml v1.2.3 + libmatroska v1.3.0



Video
ID : 1
Format : AVC
Format/Info : Advanced Video Codec
Format profile : High@L3.0
Format settings, CABAC : Yes
Format settings, ReFrames : 5 frames
Codec ID : V_MPEG4/ISO/AVC
Duration : 1h 56mn
Bit rate : 871 Kbps
Width : 720 pixels
Height : 304 pixels
Display aspect ratio : 2.35:1
Frame rate : 23.976 fps
Color space : YUV
Chroma subsampling : 4:2:0
Bit depth : 8 bits
Scan type : Progressive
Bits/(Pixel*Frame) : 0.166
Stream size : 713 MiB (85%)
Writing library : x264 core 120 r2164 da19765
Encoding settings : cabac=1 / ref=5 / deblock=1:-1:-1 / analyse=0x3:0x133 / me=umh / subme=6 / psy=1 / psy_rd=1.00:0.00 / mixed_ref=1 / me_range=16 / chroma_me=1 / trellis=2 / 8x8dct=1 / cqm=0 / deadzone=21,11 / fast_pskip=1 / chroma_qp_offset=-2 / threads=12 / sliced_threads=0 / nr=0 / decimate=1 / interlaced=0 / bluray_compat=0 / constrained_intra=0 / bframes=3 / b_pyramid=2 / b_adapt=2 / b_bias=0 / direct=3 / weightb=1 / open_gop=0 / weightp=2 / keyint=240 / keyint_min=23 / scenecut=40 / intra_refresh=0 / rc_lookahead=40 / rc=2pass / mbtree=1 / bitrate=871 / ratetol=1.0 / qcomp=0.60 / qpmin=10 / qpmax=51 / qpstep=4 / cplxblur=20.0 / qblur=0.5 / ip_ratio=1.40 / aq=1:1.00


Audio
ID : 2
Format : AC-3
Format/Info : Audio Coding 3
Mode extension : CM (complete main)
Codec ID : A_AC3
Duration : 1h 56mn
Bit rate mode : Constant
Bit rate : 128 Kbps
Channel(s) : 2 channels
Channel positions : Front: L R
Sampling rate : 48.0 KHz
Bit depth : 16 bits
Compression mode : Lossy
Stream size : 107 MiB (13%)



SOURCES:

VIDEO: a little birdy. Thanks
AUDIO: a little birdy. Thanks
Plot:

In Alaska, an oil drilling team struggle to survive after a plane crash strands them in the wild. Hunting the humans are a pack of wolves who see them as intruders.



Screens:

image
image
image
image

Related Torrents

torrent name size files age seed leech

Sharing Widget


Download torrent
852.07 MB
seeders:2
leechers:1
The Grey 2012 SCR X264 AC3 CrEwSaDe

Trackers

tracker name Status
http://tracker.ex.ua/announce
active
udp://9.rarbg.com:2710/announce
active
http://tracker.pow7.com/announce
outdated
udp://tracker.1337x.org:80/announce
outdated
udp://tracker.openbittorrent.com:80/announce
outdated
http://ipv4.tracker.harry.lu/announce
outdated
http://inferno.demonoid.me:3417/announce
outdated
udp://tracker.publicbt.com:80/announce
outdated
http://tracker.openbittorrent.com/announce
outdated
udp://11.rarbg.com:80/announce
private
http://exodus.desync.com:6969/announce
blocked
http://fr33dom.h33t.com:3310/announce
deleted
http://tracker.publicbt.com/announce
deleted
udp://10.rarbg.com:80/announce
private
ĀµTorrent compatible trackers list

Locations

name
ThePirateBay
ExtraTorrent
Torrent hash: 53fc8366256d4d9bd858ce68fd4b5dc12d971b51

Top Comments

2
Aggro59 • 21 Mar 2012, 22:32
torrent downloaded
audio: 10video: 8
This particular upload would have received top marks for video if it wasn't for the massive watermark right in the center of the screen through the entire film.

Thanks uploader for your time.

All Comments

audio
8/10
video
7/10
please, leave only comments related to that torrent
or sign-in

0
anonymous • 30 Apr 2012, 20:39 Show comment
Was it fun watching a watermark through the entire movie? I am surprised you guys even downloaded it :D
0
hellanger6441 • 22 Apr 2012, 07:25
torrent downloaded
Show comment
audio: 9video: 9
as always awesome upload
thanks
1
Raka.India3271 • 14 Apr 2012, 00:06 Show comment
audio: 10video: 9
Keep it up.
1
VaderLoks167 • 11 Apr 2012, 10:17 Show comment
wow why would u put a watermark in the middle of the screen i mean if it was in the corner that's cool but in the freaken middle of the screen come on now bro
2
Aggro59 • 21 Mar 2012, 22:32
torrent downloaded
Show comment
audio: 10video: 8
This particular upload would have received top marks for video if it wasn't for the massive watermark right in the center of the screen through the entire film.

Thanks uploader for your time.
1
Labraid1250 • 18 Mar 2012, 10:20
torrent downloaded
Show comment
audio: 7video: 7
thanks
Show More All
0
BauhauS.629 • 21 Apr 2012, 07:20 Show comment
audio: 7video: 8
1
GPapaflessas490 • 26 Mar 2012, 17:10
torrent downloaded
Show comment
audio: 8video: 8
0
vjrough132 • 17 Mar 2012, 23:13
torrent downloaded
Show comment
audio: 8video: 8

User Opinions

philbert11026, nils_boy2005717, clk_boy18611, Ryuzaki358, geeta9999353, ch33kych4ppy344, jj1972175, kiranforkumar67, sevkettaner33, pakipc-8348 ... And 75 more
AnuSamad910, hurricando635, anselg448, Kocean21318, Pioy278, bluetuesdai155, arionb114, arcticbadger60, Clarirose53, geeg48 ... And 14 more
Report a bug