The Avengers 2012 HDCAM NEW XviD AC3-TODE

seeders: 4
leechers: 0
updated: 3 hours ago
Added on May 12, 2012 by Silmarillion516.2K in Movies
Torrent verified. Downloaded 10 times.

Summary:
Earth's mightiest heroes must come together and learn to fight as a team if they are to stop the mischievous Loki and his alien army from enslaving humanity.
Written by Chev.Chelios323.59K
report summary
The Avengers 2012 HDCAM NEW XviD AC3-TODE (Size: 708.76 MB)
  The.Avengers.2012.HDCAM.NEW.XviD.AC3-TODE.avi 708.3 MB
  Poster.jpg 112.31 KB
  bscap0004.jpg 41.76 KB
  bscap0009.jpg 37.73 KB
  bscap0002.jpg 35.38 KB
  bscap0003.jpg 29.53 KB
  bscap0000.jpg 28.89 KB
  bscap0007.jpg 28.24 KB
  bscap0010.jpg 28.07 KB
  bscap0008.jpg 26.54 KB
  bscap0011.jpg 25.88 KB
  bscap0005.jpg 23.59 KB
  bscap0006.jpg 22.54 KB
  bscap0001.jpg 20.12 KB
  NFO.txt 2.38 KB
  NFO.nfo 2.38 KB

Description

image

http://www.imdb.com/title/tt0848228/



Plot: Nick Fury of S.H.I.E.L.D. brings together a team of super humans to form The Avengers to help save the Earth from Loki and his army.


Director: Joss Whedon
Writers: Zak Penn (story), Joss Whedon (story)
Stars:Robert Downey Jr., Chris Evans and Scarlett Johansson
Genres:Action | Adventure | Sci-Fi
Country:USA
Language:English

Thanks : HOPE






Format : AVI
Format/Info : Audio Video Interleave
File size : 708 MiB
Duration : 2h 16mn
Overall bit rate : 725 Kbps
Writing application : Lavf54.3.100

Video
ID : 0
Format : MPEG-4 Visual
Format profile : Simple@L3
Format settings, BVOP : No
Format settings, QPel : No
Format settings, GMC : No warppoints
Format settings, Matrix : Default (H.263)
Codec ID : XVID
Codec ID/Hint : XviD
Duration : 2h 16mn
Bit rate : 650 Kbps
Width : 640 pixels
Height : 280 pixels
Display aspect ratio : 2.25:1
Frame rate : 23.976 fps
Color space : YUV
Chroma subsampling : 4:2:0
Bit depth : 8 bits
Scan type : Progressive
Compression mode : Lossy
Bits/(Pixel*Frame) : 0.151
Stream size : 635 MiB (90%)
Writing library : XviD 64

Audio
ID : 1
Format : AC-3
Format/Info : Audio Coding 3
Mode extension : CM (complete main)
Codec ID : 2000
Duration : 2h 16mn
Bit rate mode : Constant
Bit rate : 64.0 Kbps
Channel(s) : 2 channels
Channel positions : Front: L R
Sampling rate : 48.0 KHz
Bit depth : 16 bits
Compression mode : Lossy
Stream size : 62.4 MiB (9%)
Alignment : Aligned on interleaves
Interleave, duration : 32 ms (0.77 video frame)



image
image
image
image
image
image
image
image
image
image
image
image

Related Torrents

torrent name size files age seed leech

Sharing Widget


Download torrent
708.76 MB
seeders:2
leechers:0
The Avengers 2012 HDCAM NEW XviD AC3-TODE



To share this torrent use the code below and insert it into comments, status messages, forum posts or your signature.

Torrent: The Avengers 2012 HDCAM NEW XviD AC3-TODE

Trackers

tracker name Status
udp://tracker.openbittorrent.com:80/announce
active
http://tracker.istole.it/announce
active
udp://9.rarbg.com:2710/announce
active
udp://tracker.1337x.org:80/announce
active
udp://tracker.publicbt.com:80/announce
active
udp://tracker.istole.it:80/announce
active
http://exodus.desync.com:6969/announce
blocked
http://fr33dom.h33t.com:3310/announce
deleted
http://tracker.publicbt.com/announce
deleted
udp://fr33domtracker.h33t.com:3310/announce
deleted
µTorrent compatible trackers list

Locations

name
KickassTorrents
Torrent hash: 2F3C6D67A6956984D6C6BA786144925BC72A233A

All Comments

audio
5/10
video
7/10
please, leave only comments related to that torrent
or sign-in

0
anonymous • 15 May 2012, 06:20 Show comment
plz post the LINK for ENGLISH SUBTITLES
0
jazz_singh16.64K • 14 May 2012, 08:00
torrent downloaded
Show comment
thanx.....biggrin
0
mefink24326 • 13 May 2012, 17:16
torrent downloaded
Show comment
audio: 9video: 8
This is really good for cam actually this is 1 of the best for this film so far on the site Thank you amazing sound quality for a cam!
0
mefink24326 • 13 May 2012, 13:57 Show comment
Because there is a scene after the main characters credits and than a short cheesy scene after the credits (which not worth watching i learned seeing it in theatres opening night) and fyi in marvel movies the credits almost always contain forshadowing scenes
0
mazdog233428 • 12 May 2012, 18:14
torrent downloaded
Show comment
audio: 4video: 9
Sounds canny for a Cam. No end credit scenes.
0
anonymous • 13 May 2012, 07:28 Show comment
y would u need end credits the film is wot u shuld be watchin der!!!!
0
anonymous • 14 May 2012, 13:56 Show comment
If ur wondering what happens at the end, it just shows who the new villain is for the next Avengers movie (or Thor 2 or Ironman 3) The villains name is Thanos, search him up.. :)

0
anonymous • 14 May 2012, 08:13 Show comment
audio: 4video: 6

User Opinions

Report a bug