Advertising (remove)

Teen Sex Movs – Demida

seeders: 0
leechers: 2
updated: 6 hours ago
Added on Nov 9, 2012 by ponklay7268 in XXX > Video
Torrent verified. Downloaded 0 times.

Teen Sex Movs – Demida (Size: 358.9 MB)
  Teen_Sex_Movs_Demida.wmv 358.9 MB
Advertising (remove)

Description

Screens:
http://imgchili.com/show/203...109_teen_sex_movs_demida.jpg

Demida is a skinny teen hottie with small boobs. She is ready to be fucked good and hard. She sucks her boyfriend's cock amazingly well as she always does before opening her thighs up for a fuck-a-thon that's going to get your dick twitching. Demida will be nailed in all positions and in the end she will get a big portion of cum over her flat belly.

Teen_Sex_Movs_Demida.wmv
Format : Windows Media
File size : 359 MiB
Duration : 23mn 50s
Overall bit rate mode : Constant
Overall bit rate : 2 105 Kbps
Maximum Overall bit rate : 2 115 Kbps
Performer : Royal-Cash.com
Encoded date : UTC 2012-01-08 20:46:38.646
Copyright : Royal-Cash.com

Video
ID : 2
Format : VC-1
Format profile : MP@HL
Codec ID : WMV3
Codec ID/Info : Windows Media Video 9
Codec ID/Hint : WMV3
Description of the codec : Windows Media Video 9 - Professional
Duration : 23mn 50s
Bit rate mode : Constant
Bit rate : 2 048 Kbps
Width : 860 pixels
Height : 480 pixels
Display aspect ratio : 16:9
Frame rate : 23.976 fps
Bit depth : 8 bits
Scan type : Progressive
Compression mode : Lossy
Bits/(Pixel*Frame) : 0.207
Stream size : 349 MiB (97%)
NumberOfFrames : 34279

Audio
ID : 1
Format : WMA
Format version : Version 2
Codec ID : 161
Codec ID/Info : Windows Media Audio
Description of the codec : Windows Media Audio 9.1 - 48 kbps, 32 kHz, stereo 1-pass CBR
Duration : 23mn 50s
Bit rate mode : Constant
Bit rate : 48.0 Kbps
Channel(s) : 2 channels
Sampling rate : 32.0 KHz
Bit depth : 16 bits
Stream size : 8.18 MiB (2%)
NumberOfFrames : 3727

Related Torrents

torrent name size files age seed leech

Sharing Widget


Download torrent
358.9 MB
seeders:0
leechers:0
Teen Sex Movs – Demida



To share this torrent use the code below and insert it into comments, status messages, forum posts or your signature.

Torrent: Teen Sex Movs – Demida

Trackers

tracker name Status
udp://tracker.openbittorrent.com:80/announce
active
udp://tracker.publicbt.com:80/announce
active
udp://tracker.1337x.org:80/announce
active
udp://tracker.istole.it:80/announce
active
http://exodus.desync.com:6969/announce
blocked
udp://fr33dom.h33t.com:3310/announce
deleted
udp://fr33domtracker.h33t.com:3310/announce
deleted
http://fr33dom.h33t.com:3310/announce
deleted
µTorrent compatible trackers list

Locations

name
KickassTorrents
Torrent hash: 4D863EF8D26CEB024A3DDFAABC604BA27BF6B8AB

All Comments

audio
0/10
video
0/10
please, leave only comments related to that torrent
or sign-in


User Opinions

HsRsn28.94K, metalmaragato12.59K, jammer474077, StarFoxx2445, eyaaaad581, Monarch00168
Report a bug