Special 26 - DVDScr - 1CDRip - Xvid - ESubs

seeders: 0
leechers: 0
updated: 1 week ago
Added on Feb 11, 2013 by LegitTorrents2221 in Movies > Bollywood
Torrent verified. Downloaded 0 times.

Summary:
Based on a real life group of con artists who pulled off many clever robberies during 1980s, and robbed famous businessmen and politicians by pretending to be the CBI or Income tax officers and conducting raids, on the pretext of conducting raids they would take away all the black money hoarded by them.
Written by wrong.user.link49.66K
report summary
Available in versions: 1080p720pHDRiP
Special 26 - DVDScr - 1CDRip - Xvid - ESubs (Size: 696.06 MB)
  Special 26 - DVDScr - 1CDRip - Xvid - ESubs.avi 696.03 MB
  Special 26 - DVDScr - 1CDRip - Xvid - ESubs.srt 22.58 KB
  info.txt 2.23 KB

Description

General

Complete name : Special 26 - DVDScr - 1CDRip - Xvid - ESubs.avi
Format : AVI
Format/Info : Audio Video Interleave
File size : 696 MiB
Duration : 2h 19mn
Overall bit rate : 698 Kbps
Writing application : VirtualDubMod 1.5.10.2 (build 2540/release)
Writing library : VirtualDubMod build 2540/release

Video
ID : 0
Format : MPEG-4 Visual
Format profile : Advanced Simple@L5
Format settings, BVOP : 1
Format settings, QPel : No
Format settings, GMC : No warppoints
Format settings, Matrix : Custom
Codec ID : XVID
Codec ID/Hint : XviD
Duration : 2h 19mn
Bit rate : 609 Kbps
Width : 640 pixels
Height : 256 pixels
Display aspect ratio : 2.500
Frame rate : 23.976 fps
Color space : YUV
Chroma subsampling : 4:2:0
Bit depth : 8 bits
Scan type : Progressive
Compression mode : Lossy
Bits/(Pixel*Frame) : 0.155
Stream size : 607 MiB (87%)
Writing library : XviD 1.2.1 (UTC 2008-12-04)

Audio
ID : 1
Format : MPEG Audio
Format version : Version 1
Format profile : Layer 3
Mode : Joint stereo
Mode extension : Intensity Stereo + MS Stereo
Codec ID : 55
Codec ID/Hint : MP3
Duration : 2h 19mn
Bit rate mode : Constant
Bit rate : 80.0 Kbps
Channel(s) : 2 channels
Sampling rate : 32.0 KHz
Compression mode : Lossy
Stream size : 79.8 MiB (11%)
Alignment : Aligned on interleaves
Interleave, duration : 42 ms (1.00 video frame)
Interleave, preload duration : 504 ms

Sharing Widget


Download torrent
696.06 MB
seeders:0
leechers:0
Special 26 - DVDScr - 1CDRip - Xvid - ESubs

Trackers

tracker name Status
udp://tracker.publicbt.com:80/announce
outdated
udp://tracker.istole.it:80/announce
outdated
udp://tracker.openbittorrent.com:80/announce
outdated
udp://fr33domtracker.h33t.com:3310/announce
deleted
udp://tracker.ccc.de:80/announce
deleted
µTorrent compatible trackers list

Locations

name
KickassTorrents
Torrent hash: 7B12039FB4215EF03060D9A07382E6A7ED734FF4

All Comments

audio
3/10
video
3/10
please, leave only comments related to that torrent
or sign-in

0
anonymous • 12 Mar 2013, 10:35 Show comment
Monica says its unbelievable,some who earned says its a wonderful opportunity to earn about $4500 in 1 month by uploading movie clip on Home Profit, did you read the page http://cutt.us/Career
0
anonymous • 11 Mar 2013, 16:02 Show comment
hd me kro na
0
anonymous • 11 Mar 2013, 07:54 Show comment
good quality.. stuckup at 97%
0
anonymous • 06 Mar 2013, 20:47 Show comment
audio: 2video: 1
Not the greatest copy, recommend you wait for another torrent.
0
DexzAery21.88K • 04 Mar 2013, 05:28
torrent downloaded
Show comment
audio: 6video: 6
thanks
0
anonymous • 25 Feb 2013, 15:29 Show comment
Download from movieblogger4you.blogspot.in
0
anonymous • 22 Feb 2013, 01:28 Show comment
Gets stucked at 97.5%
0
anonymous • 25 Feb 2013, 16:56 Show comment
try initial seeding by double clicking the torrent. hope it will work

Show More All
0
atix06255 • 13 Mar 2013, 16:09
torrent downloaded
Show comment
audio: 5video: 5
0
anonymous • 28 Feb 2013, 19:12 Show comment
audio: 1video: 1
0
kartik14063 • 17 Feb 2013, 23:34 Show comment
audio: 1video: 1

User Opinions

Report a bug