Shuddh Desi Romance (2013) 480MB Scam Rip x264 MP4 - D3viL

seeders: 3
leechers: 0
updated: 1 week ago
Added on Sep 6, 2013 by shaan666334 in Movies > Bollywood
Torrent verified. Downloaded 0 times.

Shuddh Desi Romance (2013) 480MB Scam Rip x264 MP4 - D3viL (Size: 485.5 MB)
  Shuddh Desi Romance (2013) 480MB Scam Rip x264 MP4 - D3viL.mp4 480 MB
  Torrent Tracked By Www.DesiDhamal.Com.txt 90 bytes
  SAMPLE
  SCREEN SHOTS

Description

Shuddh Desi Romance (2013) 480MB Scam Rip x264 MP4 - D3viL

image


INFO

General
Complete name : Shuddh Desi Romance (2013) 480MB Scam Rip x264 MP4 - D3viL.mp4
Format : MPEG-4
Format profile : Base Media
Codec ID : isom
File size : 480 MiB
Duration : 1h 54mn
Overall bit rate mode : Variable
Overall bit rate : 586 Kbps


Video
ID : 1
Format : AVC
Format/Info : Advanced Video Codec
Format profile : High@L2.0
Format settings, CABAC : Yes
Format settings, ReFrames : 4 frames
Codec ID : avc1
Codec ID/Info : Advanced Video Coding
Duration : 1h 54mn
Bit rate : 519 Kbps
Maximum bit rate : 2 121 Kbps
Width : 352 pixels
Height : 160 pixels
Display aspect ratio : 2.2:1
Frame rate mode : Constant
Frame rate : 25.000 fps
Color space : YUV
Chroma subsampling : 4:2:0
Bit depth : 8 bits
Scan type : Progressive
Bits/(Pixel*Frame) : 0.369
Stream size : 425 MiB (89%)
Title : ¨ÍñtðJ
Writing library : x264 core 120 r2164 da19765


Audio
ID : 2
Format : AAC
Format/Info : Advanced Audio Codec
Format profile : HE-AAC / LC
Codec ID : 40
Duration : 1h 54mn
Bit rate mode : Variable
Bit rate : 64.0 Kbps
Maximum bit rate : 73.0 Kbps
Channel(s) : 2 channels
Channel positions : Front: L R
Sampling rate : 48.0 KHz / 24.0 KHz
Compression mode : Lossy
Stream size : 52.4 MiB (11%)


SCREEN SHOTS

image
image
image
image
image
image
image
image


DOWNLOAD SAMPLE

http://www.maxmirror.com/download/5R86TNSS





~~ENJOY THE MOVIE AND PLEASE NOTE THAT THIS IS FIRST SCAM VERSION~~

Related Torrents

torrent name size files age seed leech

Sharing Widget


Download torrent
485.5 MB
seeders:3
leechers:0
Shuddh Desi Romance (2013) 480MB Scam Rip x264 MP4 - D3viL

Trackers

tracker name Status
udp://tracker.btscene.eu:80/announce
outdated
udp://tracker.1337x.org:80/announce
outdated
udp://tracker.istole.it:80/announce
outdated
udp://tracker.openbittorrent.com:80/announce
outdated
udp://tracker.publicbt.com:80/announce
outdated
http://flashtorrents.org/announce.php
blocked
http://exodus.desync.com:6969/announce
blocked
http://divxhunt.me/announce.php
blocked
udp://fr33domtracker.h33t.com:3310/announce
deleted
http://bt.poletracker.org:2710/announce
active
µTorrent compatible trackers list

Locations

name
KickassTorrents
ThePirateBay
ExtraTorrent
Torrent hash: 6E53A51D8598293DB5DDB51B64C2FCA90B7A2756

Uploader Comments

11
shaan666334 • 07 Sep 2013, 18:25
Uploader
Guys, please know that this is first Scam rip, If not appreciated atleast be thankful for ripping and uploading for ya to have this share. I have clearly mentioned on the footer of my post that this is 1st version of the first copy scam rip.

Top Comments

5
ThePieMaker1671 • 08 Sep 2013, 14:07
Thanks Uploader
Appreciate your efforts
Keep it up

All Comments

audio
5/10
video
5/10
please, leave only comments related to that torrent
or sign-in

0
DEGE-EX3526 • 28 Sep 2013, 15:44
torrent downloaded
Show comment
audio: 6video: 3
Thank you very much
0
XdrX212 • 27 Sep 2013, 21:04 Show comment
thanks :)biggrinbiggrinbiggrinbiggrinbiggrin
0
anonymous • 27 Sep 2013, 07:45 Show comment
audio: 7video: 7
faad bc mc.. baaki chutiye hai jo ye chutiyape karte hai...!!! :P
0
abhi_nino4505 • 26 Sep 2013, 14:16
torrent downloaded
Show comment
audio: 6video: 6
thank u
0
anonymous • 26 Sep 2013, 13:02 Show comment
don't download this movie quality is too bad i think it has been capture by mobile
0
Jahjonah1 • 26 Sep 2013, 12:56 Show comment
Bad movi
Show More All
0
anonymous • 26 Sep 2013, 16:02 Show comment
audio: 7video: 7

User Opinions

jasw2810.67K, Johney-895969, Modearham3628, persia882328, cwchase101460, KingVansh1444, dilipkk983, sbadbadman929, violetangeleyez338, ShaunJ239 ... And 101 more
King_alvi1424, fore_ever4u969, brijnandan486, Ahmed_Bin_E313, gamerboy300, hatz9285, zoom3030221, sid007sidharth149, talhauddiahmed109, rock69roll60 ... And 42 more
Report a bug