Sherlock - Season 2 (2011) 720p MKV x264 AC3 BRrip [Pioneer]

seeders: 42
leechers: 14
updated: 2 days ago
Added on Apr 8, 2013 by Pioneer426675 in TV
Torrent verified. Downloaded 10 times.

Sherlock - Season 2 (2011) 720p MKV x264 AC3 BRrip [Pioneer] (Size: 6.43 GB)
  Torrent downloaded from SilverTorrent.org.txt 86 bytes
  Torrent downloaded from Pioneer torrents at BTScene.org.txt 122 bytes
  torrent downloaded from H33T.com.txt 32 bytes
  Torrent Downloaded From Torrentmafia.org.txt 57 bytes
  Torrent downloaded from www.p2pdl.com.txt 37 bytes
  Torrent downloaded from KICKASS.txt 31 bytes
  Torrent downloaded from AhaShare.com.txt 58 bytes
  Sherlock (2011) S2E02 (The Hounds Of The Baskerville) 720p MKV x264 AC3 BRrip [Pioneer].mkv 2.59 GB
  Sherlock (2011) S2E03 (The Reichenbach Fall) 720p MKV x264 AC3 BRrip [Pioneer].mkv 1.94 GB
  Torrent downloaded from extratorrent.com.txt 339 bytes
  Torrent Downloaded from www.Limetorrents.txt 40 bytes
  Sherlock (2011) S2E01 (A Scandal In Beigravia) 720p MKV x264 AC3 BRrip [Pioneer].mkv 1.9 GB

Description

image


Three-part BBC mini-series of the BBC's fast-paced modernised crime drama based on the characters created by Arthur Conan Doyle. Laptops, mobile phones and the internet are the new tools for crime in a modern London under threat from serial killers, bombings and gang warfare. Sherlock Holmes (Benedict Cumberbatch), the most brilliant intellect of his generation, has a unique analytical brain unlike anyone else's, and staves off the ever-present threat of boredom by solving crimes, the more intricate and baffling the better. Meanwhile, his friend and flatmate, John Watson (Martin Freeman), is an army doctor invalided home from the battlefields of Afghanistan. Episodes comprise: 'A Scandal in Belgravia', 'The Hounds of Baskerville' and 'The Reichenbach Fall'.

Starring: Benedict Cumberbatch, Martin Freeman
Directors: Steven Moffat, Mark Gatiss, Steve Thompson




http://www.imdb.com/title/tt1475582/




http://www.youtube.com/watch?v=E2MXppyXsUY





image
image
image
image
image
image
image


General
Unique ID: 281959922896717543164252388394550008252 (0xD41F81803297454D65A8971B390599BC)
Complete name: E:\Sherlock (2011) S2E02 (The Hounds Of The Baskerville) 720p MKV x264 AC3 BRrip [Pioneer].mkv
Format : Matroska
Format version: Version 2
File size: 2.59 GiB
Duration: 1h 28mn
Overall bit rate: 4 200 Kbps
Writing application: HandBrake 0.9.8
Writing library: libmkv 0.6.5

Video
ID: 1
Format: AVC
Format/Info: Advanced Video Codec
Format profile: High@L4.0
Format settings, CABAC: Yes
Format settings, ReFrames: 5 frames
Codec ID: V_MPEG4/ISO/AVC
Duration: 1h 28mn
Bit rate: 3 668 Kbps
Width: 1 280 pixels
Height: 720 pixels
Display aspect ratio: 16:9
Frame rate mode: Constant
Frame rate: 25.000 fps
Color space: YUV
Chroma subsampling: 4:2:0
Bit depth: 8 bits
Scan type: Progressive
Bits/(Pixel*Frame): 0.159
Stream size: 2.26 GiB (87%)
Writing library: x264 core 120
Language: English
Default: Yes
Forced : No
Color primaries: BT.709
Transfer characteristics: BT.709
Matrix coefficients: BT.709

Audio
ID: 2
Format: AC-3
Format/Info: Audio Coding 3
Mode extension: CM (complete main)
Format settings, Endianness: Big
Codec ID: A_AC3
Duration: 1h 28mn
Bit rate mode: Constant
Bit rate: 448 Kbps
Channel(s): 6 channels
Channel positions: Front: L C R, Side: L R, LFE
Sampling rate: 48.0 KHz
Bit depth: 16 bits
Compression mode: Lossy
Stream size: 283 MiB (11%)
Default: Yes
Forced: No

Related Torrents

torrent name size files age seed leech

Sharing Widget


Download torrent
6.43 GB
seeders:42
leechers:14
Sherlock - Season 2 (2011) 720p MKV x264 AC3 BRrip [Pioneer]

Trackers

tracker name Status
udp://9.rarbg.me:2710/announce
active
udp://tracker.openbittorrent.com:80/announce
active
udp://9.rarbg.com:2710/announce
active
udp://tracker.istole.it:80/announce
outdated
udp://tracker.publicbt.com:80/announce
outdated
udp://12.rarbg.me:80/announce
outdated
udp://11.rarbg.me:80/announce
blocked
http://tracker.trackerfix.com/announce
deleted
http://p2pdl.com:2710/announce
deleted
udp://10.rarbg.me:80/announce
active
µTorrent compatible trackers list

Locations

name
KickassTorrents
Torrent hash: B52F48CB2E103D3B3DB0F48A77225F4ED195E71D

Uploader Comments

1
Pioneer426675 • 28 Jan 2014, 22:12
Uploader
Season 3 is now up
Torrent: Sherlock - Season 3 (2013) 7...4 DTS BluRay-SilverTorrentHD

Top Comments

3
anonymous • 31 May 2013, 07:47
audio: 9video: 9
http://www.tvsubtitles.net/subtitle-748-2-en.html English Subtitles. Only tested episode 1 so far but it has worked excellently.
3
MSFighter1756 • 06 Jan 2014, 19:52
Played great ! Thanks Pioneer42 ! Seeding...
2
giddaychief95 • 03 Jun 2013, 10:55
torrent downloaded
good copy

All Comments

audio
9/10
video
9/10
please, leave only comments related to that torrent
or sign-in

0
Dave5551204 • 01 Jul 2015, 09:30
torrent downloaded
Show comment
audio: 8video: 8
Great Quality
0
Nickcruze1164 • 27 May 2015, 15:45
torrent downloaded
Show comment
audio: 9video: 9
Thanks
0
Akturk237 • 19 May 2015, 23:50
torrent downloaded
Show comment
audio: 9video: 9
Thanks
0
mehidk605 • 30 Nov 2014, 20:26
torrent downloaded
Show comment
audio: 10video: 10
thanks! smile
0
vksvks391175 • 29 Nov 2014, 10:43
torrent downloaded
Show comment
audio: 10video: 10
great quality..!! Thank you..!!
0
Karolomen210 • 07 Nov 2014, 22:59
torrent downloaded
Show comment
audio: 9video: 9
Great quality. Thanks a lot!
0
Aboctat68 • 05 Nov 2014, 10:28 Show comment
audio: 9video: 9
mind blowing!!!!!!!!! Keep it up boss. downloading s03 now...
Show More All
0
subby471075 • 21 Feb 2015, 15:02
torrent downloaded
Show comment
audio: 10video: 10
0
rtud1927 • 20 Feb 2015, 08:27
torrent downloaded
Show comment
audio: 9video: 9
0
MaahAllves4389 • 17 Nov 2014, 17:14
torrent downloaded
Show comment
audio: 9video: 9

User Opinions

RustCohle5689, subtleline3709, speedtriplll2201, ishy775, Mecer11732, kid398, Audioidiot391, vip_becks7363, Anemoon200, khaloody113 ... And 548 more
sebshaky5574, WTFBT1652, Blackkice186, weirdsunrise178, batiner147, tshego17125, naughtyfun10
Report a bug