Saadi Love Story 2013 Hindi Punjabi Movies New Source DvDScr Sample Included ~ rDX

seeders: 6
leechers: 4
Added on Jan 23, 2013 by teamrdx17.75K in Movies > Bollywood
Torrent verified. Downloaded 352 times.

Summary:
Saadi love story is a story that lives by its name. Preeti, who is a die hard romantic waits for her prince charming, who would come some day and sweep her off the ground. But when two boys show up on their door claiming to be the one that Preeti’s sister Gurleen had chosen to spend her life with, Preeti and her family finds themselves in a dilemma. They hear to the love stories of both Rajveer, one an aspiring photographer and the other an aspiring singer. Preeti who lives in the world of romance wishes that the boys had narrated would both be true. The story is a roller coaster ride with family drama, comedy and romance and also a puzzle to solve that which is the real love story. Will Preeti find her prince charming or not.
Written by -PUNISHER-10.66K
report summary
Available in versions: Screener
Saadi Love Story 2013 Hindi Punjabi Movies New Source DvDScr Sample Included ~ rDX (Size: 721 MB)
  Saadi Love Story 2013 Hindi Punjabi Movies New Source DvDScr ~ rDX.mkv 714.87 MB
  Sample ~ Saadi Love Story 2013 Hindi Punjabi Movies New Source DvDScr ~ rDX.mkv 6.13 MB

Description

Saadi Love Story 2013 Hindi Punjabi Movies New Source DvDScr Sample Included ~ rDX

Screen Shots :

http://myimghosting.serveftp.com/SaadiLovStoryDVD.html

http://myimghost.cwahi.net/SaadiLovStoryDVD.html



Format : Matroska
Format version : Version 2
File size : 715 MiB
Duration : 1h 44mn
Overall bit rate : 953 Kbps
Movie name : Saadi Love Story 2013 DVDScr Hindi
Encoded date : UTC 2013-01-22 15:50:29
Writing library : libebml v1.2.3 + libmatroska v1.3.0

Video
ID : 1
Format : MPEG-4 Visual
Format profile : Advanced Simple@L5
Format settings, BVOP : Yes
Format settings, QPel : Yes
Format settings, GMC : No warppoints
Format settings, Matrix : Default (H.263)
Codec ID : V_MS/VFW/FOURCC / XVID
Codec ID/Hint : XviD
Duration : 1h 44mn
Bit rate : 806 Kbps
Width : 640 pixels
Height : 272 pixels
Display aspect ratio : 2.35:1
Frame rate mode : Constant
Frame rate : 23.976 fps
Color space : YUV
Chroma subsampling : 4:2:0
Bit depth : 8 bits
Scan type : Progressive
Compression mode : Lossy
Bits/(Pixel*Frame) : 0.193
Stream size : 605 MiB (85%)
Title : Saadi Love Story 2013 DVDScr Hindi
Writing library : XviD 1.2.1 (UTC 2008-12-04)
Language : Hindi
Default : Yes
Forced : No

Audio
ID : 2
Format : MPEG Audio
Format version : Version 1
Format profile : Layer 2
Muxing mode : Header stripping
Codec ID : A_MPEG/L2
Codec ID/Hint : MP2
Duration : 1h 44mn
Bit rate mode : Constant
Bit rate : 128 Kbps
Channel(s) : 2 channels
Sampling rate : 48.0 KHz
Compression mode : Lossy
Stream size : 96.0 MiB (13%)
Title : Saadi Love Story 2013 DVDScr Hindi
Language : Hindi
Default : Yes
Forced : No

Sharing Widget


Download torrent
721 MB
seeders:6
leechers:4
Saadi Love Story 2013 Hindi Punjabi Movies New Source DvDScr Sample Included ~ rDX

Trackers

tracker name Status checked seeders leechers downloads
udp://9.rarbg.com:2710/announce
active 08 Jul 2015 6 3 318
udp://coppersurfer.tk:6969/announce
active 08 Jul 2015 3 4 2
udp://tracker.openbittorrent.com:80/announce
active 08 Jul 2015 3 3 10
udp://open.demonii.com:1337/announce
active 08 Jul 2015 6 3 54
udp://tracker.istole.it:80/announce
outdated 23 May 2015 - - -
udp://tracker.publicbt.com:80/announce
outdated 23 May 2015 - - -
udp://fr33dom.h33t.com:3310/announce
deleted 23 May 2015 - - -
udp://tracker.ccc.de:80/announce
deleted 23 May 2015 - - -
udp://fr33domtracker.h33t.com:3310/announce
deleted 23 May 2015 - - -
µTorrent compatible trackers list

Locations

name
KickassTorrents
Torrent hash: 021CA87E12947428ABDB10433ABAF0DF844E597F

All Comments

audio
5/10
video
5/10
please, leave only comments related to that torrent
or sign-in

0
anonymous • 08 June 2013, 18:29 Show comment
doesnt work
0
anonymous • 23 May 2013, 05:50 Show comment
audio: 1video: 1
bakwas movie
0
anonymous • 30 April 2013, 15:25 Show comment
Good Movie Yr ..=.Enjoyable movie...,.. :)
0
anonymous • 21 April 2013, 10:13 Show comment
audio: 7video: 6
very nice movie........
0
anonymous • 22 February 2013, 11:31 Show comment
audio video excellent...movie is a bitch...
0
Hassanshafi149 • 11 February 2013, 12:50
torrent downloaded
Show comment
audio: 6video: 6
nice movie
0
anonymous • 31 January 2013, 14:35 Show comment
audio: 10video: 10
good audio and vidio
Show More All
0
gayatri67811277 • 04 August 2013, 05:24
torrent downloaded
Show comment
audio: 5video: 6

User Opinions

Report a bug