Pirates Of The Caribbean On Stranger Tides.2011.720p.BRRip.Xvid.AC3- SiNiSTER

seeders: 0
leechers: 0
updated: 1 week ago
Added on Oct 12, 2011 in Movies > Highres Movies
Torrent verified. Downloaded 0 times.

  • add Pirates of the ... Stranger Tides to bookmarks
  • Release date: 07 May 2011
  • Writers: Ted Elliott (screenplay), Terry Rossio (screenplay), Ted Elliott (screen story), Terry Rossio (screen story), Ted Elliott (characters), Terry Rossio (characters), Stuart Beattie (characters), Jay Wolpert (characters), Tim Powers (novel)
  • Director: Rob Marshall
  • Language: English
Summary:
Jack Sparrow and Barbossa embark on a quest to find the elusive fountain of youth, only to discover that Blackbeard and his daughter are after it too.
Written by DeadShot10144.17K
report summary
Pirates Of The Caribbean On Stranger Tides.2011.720p.BRRip.Xvid.AC3- SiNiSTER (Size: 3.46 GB)
  enjoy.txt 36 bytes
  Pirates Of The Caribbean On Stranger Tides.2011.720p.BRRip.Xvid.AC3- SiNiSTER.avi 3.45 GB
  Pirates of the Caribbean On Stranger Tides.jpg 122.15 KB
  sceneunderground org.txt 27 bytes
  SiNiSTER NFO.nfo 4.66 KB
  vlcsnap-00001.png 619.13 KB
  vlcsnap-00002.png 516.55 KB
  vlcsnap-00003.png 630.81 KB
  vlcsnap-00004.png 924.57 KB

Description

*******************************************************************************
Pirates Of The Caribbean On Stranger Tides.2011.720p.BRRip.Xvid.AC3- SiNiSTER
*******************************************************************************
General Information


Format : AVI
Format/Info : Audio Video Interleave
Format profile : OpenDML
File size : 3.45 GiB
Duration : 2h 16mn
Overall bit rate : 3 626 Kbps
Writing application : MPlayer

Video
ID : 0
Format : MPEG-4 Visual
Format profile : Advanced Simple@L5
Format settings, BVOP : Yes
Format settings, QPel : No
Format settings, GMC : No warppoints
Format settings, Matrix : Default (H.263)
Muxing mode : Packed bitstream
Codec ID : XVID
Codec ID/Hint : XviD
Duration : 2h 16mn
Bit rate : 3 040 Kbps
Width : 1 280 pixels
Height : 528 pixels
Display aspect ratio : 2.40:1
Frame rate : 23.976 fps
Color space : YUV
Chroma subsampling : 4:2:0
Bit depth : 8 bits
Scan type : Progressive
Bits/(Pixel*Frame) : 0.188
Stream size : 2.90 GiB (84%)
Writing library : XviD 1.2.1 (UTC 2008-12-04)

Audio
ID : 1
Format : AC-3
Format/Info : Audio Coding 3
Mode extension : CM (complete main)
Codec ID : 2000
Duration : 2h 16mn
Bit rate mode : Constant
Bit rate : 576 Kbps
Channel(s) : 6 channels
Channel positions : Front: L C R, Side: L R, LFE
Sampling rate : 48.0 KHz
Bit depth : 16 bits
Stream size : 562 MiB (16%)
Alignment : Split accross interleaves
Interleave, duration : 42 ms (1.00 video frame)
Interleave, preload duration : 500 ms






Video Source: Pirates.Of.The.Caribbean.On.Stranger.Tides.2011.1080p.BluRay.x264-TWiZTED.....thanks
Audio Source: Pirates.Of.The.Caribbean.On.Stranger.Tides.2011.1080p.BluRay.x264-TWiZTED.....thanks


Greets:
DarkScene,HDScene,Noir,CrEwSaDe,blackjesus,ViSiON,HDLiTE,UnKnOwN,IMAGiNE,
FLAWL3SS,Rx,ELEKTRI4KA,CiNEDUB,BDK,SAFCuk009,HiVE-CM8..... and everybody else we
respect.. u know who u are
Post InformationEncoded by...........: SiNiSTER

Have sumthing to offer..looking for suppliers... cammers,cams,screeners, audio
supplier.. and any pre retail DVD/BR any RC...if u can provide any email us at
sinister@hushmail.meRelease Notes
source was nice just made a script to resize, adjust coloring slightly, denoise
and sharpen.. then converted DTS to AC3 and remuxed to my encode.enjoy.....


ScreenShots








Generated with Cool NFO Creator - http://fly.to/coolbeans
/>

Related Torrents

torrent name size files age seed leech

Sharing Widget


Download torrent
3.46 GB
seeders:0
leechers:0
Pirates Of The Caribbean On Stranger Tides.2011.720p.BRRip.Xvid.AC3- SiNiSTER

Trackers

tracker name Status
http://secure.pow7.com/announce
outdated
http://pow7.com/announce
outdated
http://t1.pow7.com/announce
outdated
udp://tracker.publicbt.com:80/announce
outdated
udp://tracker.openbittorrent.com:80/announce
outdated
http://tracker.openbittorrent.com/announce
outdated
http://tracker.publicbt.com/announce
deleted
http://9.rarbg.com:2710/announce
private
µTorrent compatible trackers list

Locations

name
ExtraTorrent
Torrent hash: a5013111c0d5be93f74251ef43cd3bcc3fcb6aa4

All Comments

audio
9/10
video
10/10
please, leave only comments related to that torrent
or sign-in

0
fattatts420186 • 14 Oct 2011, 19:52 Show comment
audio: 9video: 10
good dl. thanks uploader. pretty decent movie, at least to the fact no gay-lando bloom.

User Opinions

Report a bug