Paano Na Kaya 2010 DvDrip Xvid-Gangmie

seeders: 7
leechers: 2
updated: 14 hours ago
Added on Mar 28, 2010 in Movies
Torrent verified. Downloaded 10 times.

Summary:
Mae (Kim Chiu) has always been in love with her best friend, Bogs (Gerald Anderson). Bogs, on the other hand, is madly in love with his girlfriend, Anna (Melissa Ricks). Mae is a very good best friend, but this doesn’t make her a very good prospective girlfriend for Bogs. Bogs never saw Mae in a romantic light. She goes through college witnessing her best friend’s relationship blossom, and she has no choice but to keep loving Bogs in silence.
Written by slkdfjslkdjf-8084
report summary
Available in versions: DVDRip
Paano Na Kaya 2010 DvDrip Xvid-Gangmie (Size: 699.7 MB)
  Paano Na Kaya 2010 DvDrip Xvid-Gangmie.avi 699.62 MB
  Paano Na Kaya.srt 76.76 KB
  read.txt 2.14 KB

Description

General
Complete name : Paano Na Kaya 2010 DvDrip Xvid-Gangmie.avi
Format : AVI
Format/Info : Audio Video Interleave
File size : 700 MiB
Duration : 1h 42mn
Overall bit rate : 950 Kbps
Writing application : VirtualDubMod 1.5.10.2 (build 2542/release)
Writing library : VirtualDubMod build 2542/release

Video
ID : 0
Format : MPEG-4 Visual
Format profile : Advanced Simple@L5
Format settings, BVOP : Yes
Format settings, QPel : No
Format settings, GMC : No warppoints
Format settings, Matrix : Default (H.263)
Muxing mode : Packed bitstream
Codec ID : XVID
Codec ID/Hint : XviD
Duration : 1h 42mn
Bit rate : 811 Kbps
Width : 720 pixels
Height : 400 pixels
Display aspect ratio : 16:9
Frame rate : 23.976 fps
Resolution : 8 bits
Colorimetry : 4:2:0
Scan type : Progressive
Bits/(Pixel*Frame) : 0.117
Stream size : 597 MiB (85%)
Writing library : XviD 1.2.1 (UTC 2008-12-04)

Audio
ID : 1
Format : MPEG Audio
Format version : Version 1
Format profile : Layer 3
Format_Settings_Mode : Joint stereo
Codec ID : 55
Codec ID/Hint : MP3
Duration : 1h 42mn
Bit rate mode : Variable
Bit rate : 126 Kbps
Minimum bit rate : 112 Kbps
Channel(s) : 2 channels
Sampling rate : 48.0 KHz
Stream size : 93.0 MiB (13%)
Alignment : Aligned on interleaves
Interleave, duration : 24 ms (0.58 video frame)
Interleave, preload duration : 508 ms
Writing library : LAME3.98r
Encoding settings : -m j -V 4 -q 0 -lowpass 17.5 --vbr-new -b 112

Subtitle: English
http://thepiratebay.org/user/gangmie/

Sharing Widget


Download torrent
699.7 MB
seeders:7
leechers:2
Paano Na Kaya 2010 DvDrip Xvid-Gangmie

Trackers

tracker name Status
udp://tracker.openbittorrent.com:80/announce
outdated
udp://tracker.istole.it:80/announce
outdated
udp://tracker.publicbt.com:80/announce
outdated
udp://tracker.1337x.org:80/announce
outdated
http://exodus.desync.com:6969/announce
blocked
udp://tracker.ccc.de:80/announce
deleted
udp://fr33domtracker.h33t.com:3310/announce
deleted
µTorrent compatible trackers list

Locations

name
ThePirateBay
ExtraTorrent
SumoTorrent
Torrent hash: 15f4ed38e3c0c213ef0b50d68324aa7e648ae1f4

All Comments

audio
9/10
video
8/10
please, leave only comments related to that torrent
or sign-in

0
Deazy61555 • 29 Sep 2014, 06:56
torrent downloaded
Show comment
thanks.
0
yunice78 • 02 Jan 2014, 08:40
torrent downloaded
Show comment
audio: 9video: 8
Great. Thanks

User Opinions

praveen591011.65K, Reematho238, dom25bjj209, Gaiakai147, deronn133, yunice78, rubenjr38, wendee17, chatturbxx11, lyrasoria7 ... And 3 more
Report a bug