Miami Vice 2006 Unrated 720p BRRip H264 AAC-Rx(Phoenix-RG)

seeders: 5
leechers: 1
updated: 22 hours ago
Added on Sep 6, 2010 in Movies > Highres Movies
Torrent verified. Downloaded 16 times.

Summary:
Based on the 1980s TV action/drama, this update focuses on vice detectives Crockett and Tubbs as their respective personal and professional lives become dangerously intertwined.
Written by Judas34.58K
report summary
Available in versions: 1080p720pHDRiPDVDRip
Miami Vice 2006 Unrated 720p BRRip H264 AAC-Rx(Phoenix-RG) (Size: 2.05 GB)
  Miami Vice 2006 Unrated 720p BRRip H264 AAC-Rx(Phoenix-RG).mp4 2.05 GB
  Cover
  Sites, Info, Tracker
  Sub

Description

Miami Vice 2006 Unrated 720p BRRip H264 AAC-Rx(Phoenix-RG).mp4
Format : MPEG-4 /AVC
File size : 2.05 GiB
Duration : 2h 19mn
Bit rate : 1 800 Kbps
Width : 1 280 pixels
Height : 536 pixels
Display aspect ratio : 2.35
Frame rate : 23.976 fps
Resolution : 24 bits
Colorimetry : 4:2:0
Scan type : Progressive
Bits/(Pixel*Frame) : 0.109
Stream size : 1.75 GiB (85%)


AUDIO:
Format : AAC / LC
Duration : 2h 19mn
Bit rate : 309 Kbps
Channel(s) : 6 channels
Channel positions : Front: L C R, Rear: L R, LFE
Sampling rate : 48.0 KHz
Resolution : 16 bits
Stream size : 307 MiB (15%)


SCREEN:

http://img801.imageshack.us/.../vlcsnap2010090608h02m02.jpg

http://img808.imageshack.us/.../vlcsnap2010090608h02m28.jpg

http://img809.imageshack.us/.../vlcsnap2010090608h07m26.jpg

Sharing Widget


Download torrent
2.05 GB
seeders:2
leechers:3
Miami Vice 2006 Unrated 720p BRRip H264 AAC-Rx(Phoenix-RG)



To share this torrent use the code below and insert it into comments, status messages, forum posts or your signature.

Torrent: Miami Vice 2006 Unrated 720p BRRip H264 AAC-Rx(Phoenix-RG)

Trackers

tracker name Status
udp://tracker.openbittorrent.com:80/announce
active
udp://tracker.publicbt.com:80/announce
active
http://10.rarbg.com/announce
private
http://tracker.token.ro/announce
active
http://genesis.1337x.org:1337/announce
active
http://exodus.1337x.org/announce
active
http://photodiode.mine.nu/announce
active
http://tracker.openbittorrent.com/announce
active
http://nemesis.1337x.org/announce
active
udp://inferno.demonoid.com:3402/announce
active
http://fr33dom.h33t.com:3310/announce
deleted
http://tracker.publicbt.com/announce
deleted
http://www.h33t.com:3310/announce
deleted
http://inferno.demonoid.com:3402/announce
error
ĀµTorrent compatible trackers list

Locations

name
ThePirateBay
ExtraTorrent
1337x
Limetorrents
Limetorrents
KickassTorrents
Torrent hash: 90ae4df38fb2100b79ea60d566eb50a1dcab6bff

All Comments

audio
8/10
video
8/10
please, leave only comments related to that torrent
or sign-in

0
Paganeus1947 • 01 Dec 2014, 01:12
torrent downloaded
Show comment
audio: 10video: 10
Outstanding! Thanks!
0
LeeMaxking733 • 08 Nov 2014, 18:36 Show comment
audio: 9video: 9
Crispy clear audio and video, UNCUT original length! Killer movie! V9 A9 Movie 10!!!
0
R..Rajkumar525 • 05 Dec 2013, 14:39 Show comment
audio: 10video: 10
Awesome Quality Thanks!I'm really surprised how guys like you can keep their respective torrents alive for so long..Great work!!biggrin
0
sferg4102982 • 20 Sep 2013, 21:29
torrent downloaded
Show comment
audio: 9video: 9
nice, thanks
0
TetrapsiFios2730 • 22 Aug 2013, 07:46
torrent downloaded
Show comment
audio: 9video: 8
Good torrent.
Thxs man!
0
checkmatelock807 • 02 Jun 2013, 11:35
torrent downloaded
Show comment
audio: 8video: 9
good movie
0
333CyberWolf3523 • 23 Apr 2013, 10:33
torrent downloaded
Show comment
audio: 8video: 8
Great download, thanks. Dialog was difficult to understand, but good movie.
0
saikumarr773 • 15 Apr 2013, 21:16
torrent downloaded
Show comment
audio: 9video: 9
thx
0
Jim_DB1980219 • 04 Mar 2013, 17:41
torrent downloaded
Show comment
audio: 10video: 10
Great movie this verion i saw a other version that was not so good with deleted scenes ! GREAT COPY !!!
0
AlexMercer7006 • 24 Feb 2013, 07:38
torrent downloaded
Show comment
audio: 8video: 9
thanks,very good quality
Show More All

User Opinions

WhiteFrog4073, Viewer_553168, ryanchrisknox495, elsaroger354, gueon285, omer7092257, jessec35160, Piki75134, theboo39132, Blaze58851 ... And 106 more
KitKat4.4.22210, holmetop1202, DerKoal671, Mark6254182
Report a bug