Madly Madagascar 2013 WEBRip XViD juggs

seeders: 11
leechers: 1
updated: 10 hours ago
Added on Apr 9, 2013 in Movies > Animation
Torrent verified. Downloaded 25 times.

Summary:
The characters from the animated Madagascar franchise, Alex, Melman, Mary and Gloria celebrate love in this Valentine special.
Written by Valkyrie83.26K
report summary
Available in versions: HDRiPDVDRip
Madly Madagascar 2013 WEBRip XViD juggs (Size: 706.79 MB)
  Madly Madagascar 2013 WEBRip XViD juggs.avi 698.96 MB
  Torrent downloaded from extratorrent.com.txt 339 bytes
  sample.avi 7.82 MB

Description

Source : HDB(Thanks)

http://www.imdb.com/title/tt2702348


Format : AVI
Format/Info : Audio Video Interleave
File size : 699 MiB
Duration : 1h 7mn
Overall bit rate : 1 444 Kbps
Writing library : VirtualDub build 32842/release

Video
ID : 0
Format : MPEG-4 Visual
Format profile : Advanced Simple@L5
Format settings, BVOP : 4
Format settings, QPel : No
Format settings, GMC : No warppoints
Format settings, Matrix : Default (H.263)
Muxing mode : Packed bitstream
Codec ID : XVID
Codec ID/Hint : XviD
Duration : 1h 7mn
Bit rate : 1 306 Kbps
Width : 640 pixels
Height : 352 pixels
Display aspect ratio : 16:9
Frame rate : 23.976 fps
Color space : YUV
Chroma subsampling : 4:2:0
Bit depth : 8 bits
Scan type : Progressive
Compression mode : Lossy
Bits/(Pixel*Frame) : 0.242
Stream size : 632 MiB (90%)
Writing library : XviD 1.2.0.dev47 (UTC 2006-11-01)

Audio
ID : 1
Format : MPEG Audio
Format version : Version 1
Format profile : Layer 3
Codec ID : 55
Codec ID/Hint : MP3
Duration : 1h 7mn
Bit rate mode : Constant
Bit rate : 128 Kbps
Channel(s) : 2 channels
Sampling rate : 44.1 KHz
Compression mode : Lossy
Stream size : 62.0 MiB (9%)
Alignment : Split accross interleaves
Interleave, duration : 42 ms (1.00 video frame)
Interleave, preload duration : 500 ms
Writing library : LAME3.99r
Encoding settings : -m s -V 4 -q 3 -lowpass 17 -b 128


http://www.shotpix.com/images/92165754944324763402.png
http://www.shotpix.com/images/05646588640039057927.png
http://www.shotpix.com/images/55890602317026339676.png

Related Torrents

torrent name size files age seed leech

Sharing Widget


Download torrent
706.79 MB
seeders:16
leechers:4
Madly Madagascar 2013 WEBRip XViD juggs



To share this torrent use the code below and insert it into comments, status messages, forum posts or your signature.

Torrent: Madly Madagascar 2013 WEBRip XViD juggs

Trackers

tracker name Status
udp://9.rarbg.com:2710/announce
active
http://tracker.ex.ua/announce
active
udp://tracker.openbittorrent.com:80/announce
active
udp://tracker.publicbt.com:80/announce
active
udp://tracker.istole.it:80/announce
active
udp://11.rarbg.com:80/announce
private
udp://www.h33t.com:3310/announce
deleted
udp://fr33dom.h33t.com:3310/announce
deleted
udp://fr33domtracker.h33t.com:3310/announce
deleted
udp://ipv4.tracker.harry.lu:80/announce
active
µTorrent compatible trackers list

Locations

name
ThePirateBay
ExtraTorrent
Torrent hash: AFFB28B18C0CD34BDAA5F72B42D82A05E2511E3B

Top Comments

7
Skyz314.63K • 12 Apr 2013, 17:30
torrent downloaded
It's a direct to DVD Valentine's Day special starring the characters from the Madagascar film series, and taking place between the second and the third film.

All Comments

audio
8/10
video
8/10
please, leave only comments related to that torrent
or sign-in

0
SwiftWatch757 • 04 Apr 2015, 09:20
torrent downloaded
Show comment
audio: 10video: 10
AWESOME
0
anonymous • 15 Feb 2015, 22:57 Show comment
audio: 10video: 10
thanks
0
stuffytick953.75K • 23 Jan 2015, 16:14
torrent downloaded
Show comment
audio: 9video: 9
Thanks. Great Copy
0
Boochkoon2409 • 30 Aug 2014, 11:30
torrent downloaded
Show comment
audio: 8video: 8
thanks a lot for the movie juggs. smile
0
kutikavu2221 • 15 Aug 2014, 18:59
torrent downloaded
Show comment
thanx
0
E79IncTz593 • 20 Jun 2014, 22:24
torrent downloaded
Show comment
Thanks Is All I Can Give..
+ I'll Seed
0
bammypantz153 • 21 Jan 2014, 02:23
torrent downloaded
Show comment
audio: 10video: 10
great copy, good sound excellent picture!
Cheers!
0
Hawksey951 • 13 Jan 2014, 02:10
torrent downloaded
Show comment
audio: 8video: 9
good upload, thanks grandkids love it
Show More All
0
BISHAKTO1811 • 24 Aug 2013, 21:30
torrent downloaded
Show comment
audio: 9video: 9

User Opinions

Naskal5786, bunicuta1892, inkle1390, clay011189, huntinglee912, stefanos1987779, apexnine486, Darkhound1382428, coltzic292, skbadri6226 ... And 450 more
CheLemur17.44K, read113984, ebishiraz841, nuaveb777, ЛΛнЦ尺Λ480, gatorguy438, john1120john271, Donovan316227, devh69140, breadman56121 ... And 7 more
Report a bug