Kung Fu Panda 2 2011 R6 LiNE XViD - CHOiCE

seeders: 0
leechers: 0
updated: 6 hours ago
Added on Aug 18, 2011 in Movies > Animation
Torrent verified. Downloaded 0 times.

Summary:
Po and his friends fight to stop a peacock villain from conquering China with a deadly new weapon, but first the Dragon Warrior must come to terms with his past.
Written by TH386.49K
report summary
Kung Fu Panda 2 2011 R6 LiNE XViD - CHOiCE (Size: 1.39 GB)
  Torrent downloaded from Demonoid.me.txt 0 bytes
  Kung Fu Panda 2 2011 R6 LiNE XViD - CHOiCE SAMPLE.avi 16.76 MB
  Kung Fu Panda 2 2011 R6 LiNE XViD - CHOiCE.avi 1.37 GB

Description


Code:Kung Fu Panda 2 2011 R6 LiNE XViD - CHOiCEIMDB: http://www.imdb.com/title/tt1302011/ RELEASE DATE: 5/26/11 SIZE: 1.36gb LENGTH: 1H 23MNSOURCE: V: ZJM A: ZJM Thanks HEIGHT: 288SUBTITLES: NONE WIDTH: 640INFO:VideoID : 0Format : MPEG-4 VisualFormat profile : Advanced Simple@L5Format settings, BVOP : 2Format settings, QPel : NoFormat settings, GMC : No warppointsFormat settings, Matrix : Default (MPEG)Muxing mode : Packed bitstreamCodec ID : XVIDCodec ID/Hint : XviDDuration : 1h 23mnBit rate : 2 199 KbpsWidth : 640 pixelsHeight : 288 pixelsDisplay aspect ratio : 2.222Frame rate : 29.970 fpsColor space : YUVChroma subsampling : 4:2:0Bit depth : 8 bitsScan type : ProgressiveCompression mode : LossyBits/(Pixel*Frame) : 0.398Stream size : 1.29 GiB (94%)Writing library : XviD 64AudioID : 1Format : MPEG AudioFormat version : Version 1Format profile : Layer 3Mode : Joint stereoMode extension : MS StereoCodec ID : 55Codec ID/Hint : MP3Duration : 1h 23mnBit rate mode : ConstantBit rate : 128 KbpsChannel(s) : 2 channelsSampling rate : 44.1 KHzCompression mode : LossyStream size : 76.8 MiB (5%)Alignment : Split accross interleavesInterleave, duration : 33 ms (1.00 video frame)NOTES:Source was very nice, but dont think it was a true dvdscr, yet it wasnt a cam either End credits are half intact, but also have chinese subs hardcoded so we went with the r6 tag from teh subs and picture quality Anyhow, audio was nice possibly line but was here and there so we made several cuts and fixed that. Overall very nice release so enjoy or wait till retail.
Screens:







ENJOY!

Related Torrents

torrent name size files age seed leech

Sharing Widget


Download torrent
1.39 GB
seeders:0
leechers:0
Kung Fu Panda 2 2011 R6 LiNE XViD - CHOiCE



To share this torrent use the code below and insert it into comments, status messages, forum posts or your signature.

Torrent: Kung Fu Panda 2 2011 R6 LiNE XViD - CHOiCE

Trackers

tracker name Status
http://tracker.torrentbay.to:6969/announce
active
http://tracker.istole.it/announce
active
http://cpleft.com:2710/announce
active
udp://tracker.openbittorrent.com:80/announce
active
http://tracker.openbittorrent.com/announce
active
udp://tracker.publicbt.com:80/announce
active
udp://tracker.istole.it:80/announce
active
http://exodus.desync.com:6969/announce
blocked
http://tracker.publicbt.com/announce
deleted
http://9.rarbg.com:2710/announce
private
http://tracker.novalayer.org:6969/announce
active
µTorrent compatible trackers list

Locations

name
ExtraTorrent
Torrent hash: 9425ccbf2a36367d299236399fd4a5ece9bfe4fa

Top Comments

2
anonymous • 24 Aug 2011, 20:55
nice share... found screens at http://requestscreens.blog.com/2011/08/24/kung-fu-panda-2-2011-r6-line-xvid-choicescreens/
2
anonymous • 25 Aug 2011, 00:33
nice share.. thankx.. screen shots http://requestscreens.blog.com/2011/08/24/kung-fu-panda-2-2011-r6-line-xvid-choicescreens/

All Comments

audio
7/10
video
7/10
please, leave only comments related to that torrent
or sign-in

0
Opula329 • 26 Sep 2011, 22:46
torrent downloaded
Show comment
audio: 7video: 6
Watchable, language changes indeed but just for a few seconds.
0
Funfactor132 • 11 Sep 2011, 04:53
torrent downloaded
Show comment
audio: 9video: 7
Some things didn't make sense, but that's ok because it's a kids movie. Although I did feel like there were parts meant for adults.
3 out of 5 stars
0
faadi12364 • 06 Sep 2011, 18:42
torrent downloaded
Show comment
audio: 7video: 7
nice
1
snowtony63 • 03 Sep 2011, 20:03
torrent downloaded
Show comment
audio: 7video: 6
Randomly changes languages for a moment...
0
Majestix97363 • 03 Sep 2011, 14:23
torrent downloaded
Show comment
audio: 8video: 8
very good
0
procras8946 • 01 Sep 2011, 14:18
torrent downloaded
Show comment
audio: 6video: 6
sucks...!!!not gud at all
0
Saqi7020631 • 31 Aug 2011, 18:46
torrent downloaded
Show comment
audio: 8video: 8
sample is good i think it should watchable
Show More All
0
anonymous • 12 Sep 2011, 19:22 Show comment
audio: 1video: 1
0
Zeekquill167 • 31 Aug 2011, 21:19
torrent downloaded
Show comment
audio: 6video: 6

User Opinions

Report a bug