Advertising (remove)

Karina - First Anal Date - First Anal With Ebony Guy

seeders: 1
leechers: 3
updated: 1 week ago
Added on Jul 6, 2013 by ponklay7257 in XXX > Video
Torrent verified. Downloaded 10 times.

Karina - First Anal Date - First Anal With Ebony Guy (Size: 412.58 MB)
  Karina_FirstAnalDate_First_Anal_With_Ebony_Guy.mp4 412.58 MB
Advertising (remove)

Description

Screens:
http://imgchili.net/show/356...535_karina_firstanaldate.jpg

This teen brunette chose the right guy for her first anal date, a handsome black stud with athletic body and the most amazing brown cock she could ever imagine. He made her so horny she was ready to go balls deep up the ass in no time, but the guy warmed her up with some skillful clit licking before thrusting his fuck tool deep into her virgin chocolate hole. He was gentle at first, but ended up fucking the bitch in the ass with no mercy and she totally loved it taking cock from every angle and moaning out loud as he drove her to her first ever anal orgasm

Karina_FirstAnalDate_First_Anal_With_Ebony_Guy.mp4
Format : MPEG-4
Format profile : Base Media
Codec ID : isom
File size : 413 MiB
Duration : 26mn 44s
Overall bit rate mode : Variable
Overall bit rate : 2 156 Kbps
Encoded date : UTC 2011-12-04 12:12:21
Tagged date : UTC 2011-12-04 12:12:21
Writing application : Lavf51.12.1

Video
ID : 1
Format : MPEG-4 Visual
Format profile : Simple@L1
Format settings, BVOP : No
Format settings, QPel : No
Format settings, GMC : No warppoints
Format settings, Matrix : Default (H.263)
Codec ID : 20
Duration : 26mn 44s
Bit rate : 2 000 Kbps
Width : 854 pixels
Height : 480 pixels
Display aspect ratio : 16:9
Frame rate mode : Constant
Frame rate : 25.000 fps
Color space : YUV
Chroma subsampling : 4:2:0
Bit depth : 8 bits
Scan type : Progressive
Compression mode : Lossy
Bits/(Pixel*Frame) : 0.195
Stream size : 383 MiB (93%)
Writing library : Lavc51.40.4
Encoded date : UTC 2011-12-04 12:12:21
Tagged date : UTC 2011-12-04 12:12:21

Audio
ID : 2
Format : AAC
Format/Info : Advanced Audio Codec
Format profile : LC
Codec ID : 40
Duration : 26mn 44s
Bit rate mode : Variable
Bit rate : 152 Kbps
Channel(s) : 2 channels
Channel positions : Front: L R
Sampling rate : 44.1 KHz
Compression mode : Lossy
Stream size : 29.1 MiB (7%)
Encoded date : UTC 2011-12-04 12:12:21
Tagged date : UTC 2011-12-04 12:12:21

Sharing Widget


Download torrent
412.58 MB
seeders:1
leechers:3
Karina - First Anal Date - First Anal With Ebony Guy

Trackers

tracker name Status
udp://9.rarbg.com:2710/announce
outdated
http://tracker.ex.ua/announce
outdated
udp://tracker.publicbt.com:80/announce
outdated
udp://tracker.openbittorrent.com:80/announce
outdated
udp://tracker.istole.it:80/announce
outdated
http://exodus.desync.com/announce
outdated
http://exodus.desync.com:6969/announce
blocked
http://tracker.coppersurfer.tk:6969/announce
deleted
udp://fr33dom.h33t.com:3310/announce
deleted
http://fr33dom.h33t.com:3310/announce
deleted
http://www.h33t.com:3310/announce
deleted
udp://11.rarbg.com/announce
active
udp://tracker.ex.ua/announce
active
udp://10.rarbg.com/announce
active
udp://ipv4.tracker.harry.lu:80/announce
active
µTorrent compatible trackers list

Locations

name
KickassTorrents
Torrent hash: E45409FB81595F23EB8FCE503326646AB86FF7BF

All Comments

audio
0/10
video
0/10
please, leave only comments related to that torrent
or sign-in

0
eric608611197 • 06 Oct 2013, 23:13
torrent downloaded
Show comment
Nice clean copy. Thanks for the share!!!

User Opinions

Report a bug