Il signor Robinson... - Sergio Corbucci 1976 [ITA]

seeders: 0
leechers: 0
Added on Jan 3, 2012 by oracenelson5284 in Movies
Torrent verified. Downloaded 0 times.

Summary:
Robbie is a rich and wealthy man who is married to a woman called Magda. One day, they decide to go on holiday. Magda suggests via ferry, despite the fact that Robbie HATES sea travel. He suggests via airplane, but Magda has a fear of heights. During a routine emergency training exercise, Robbie accidentally takes it seriously. That night, a genuine emergency arises, but Robbie thinks it's just a drill. This foolish act leaves Magda no option but to leave the ship alone, making Robbie the only person aboard the ship when it sinks. Upon waking up, Robbie thinks everything is normal, but he soon discovers he is the one remaining person on board the entire ship, which is now at the bottom of the Pacific Ocean. He escapes and arrives on a desert island, forced to live á la "Robinson Crusoe". Robbie must now survive until ...
Written by Burly.12.51K
report summary
Il signor Robinson... - Sergio Corbucci 1976 [ITA] (Size: 1.02 GB)
  Il signor Robinson... - Sergio Corbucci 1976.mkv 1.02 GB

Description



image


IMDb: http://www.imdb.com/title/tt0076632


Titolo originale Il signor Robinson, mostruosa storia d'amore e d'avventure
Lingua originale italiano
Paese Italia
Anno 1976
Durata 107 min
Colore colore
Audio sonoro
Rapporto 1,78:1
Genere avventura, commedia
Regia Sergio Corbucci
Soggetto Sergio Corbucci, Paolo Villaggio, Castellano e Pipolo
Sceneggiatura Sergio Corbucci, Paolo Villaggio, Castellano e Pipolo
Produttore Franco Cristaldi
Produttore esecutivo Bruno Altissimi
Casa di produzione Vides
Distribuzione (Italia) United Artists
Fotografia Marcello Gatti
Montaggio Amedeo Salfa
Musiche Guido De Angelis, Maurizio De Angelis

Cast:
Paolo Villaggio: Robi - Robinio - Robinson
Zeudi Araya: Venerdì
Anna Nogara: Magda
Percy Hogan: Mandingo

image


Naufraga durante una crociera e finisce, solo, su un'isola deserta. Trova poi una bella indigena, ma la moglie lo recupera. Parodia della civiltà dei consumi e di un film di Lina Wertmüller, è una commedia completamente affidata alla comicità diseguale di P. Villaggio e al fascino esotico di Z. Araya.

image


General
Complete name : Il signor Robinson... - Sergio Corbucci 1976.mkv
Format : Matroska
File size : 1.02 GiB
Duration : 1h 43mn
Overall bit rate : 1 410 Kbps
Encoded date : UTC 2012-01-01 11:26:51
Writing library : WonderShare Matroska Muxer

Video
ID : 1
Format : AVC
Format/Info : Advanced Video Codec
Codec ID : V_MPEG4/ISO/AVC
Duration : 1h 43mn
Bit rate : 1 190 Kbps
Width : 720 pixels
Height : 384 pixels
Display aspect ratio : 1.875
Frame rate : 25.000 fps
Bits/(Pixel*Frame) : 0.172
Stream size : 879 MiB (84%)

Audio
ID : 2
Format : AC-3
Format/Info : Audio Coding 3
Codec ID : A_AC3
Duration : 1h 43mn
Bit rate mode : Constant
Bit rate : 192 Kbps
Channel(s) : 2 channels
Channel positions : L R
Sampling rate : 48.0 KHz
Resolution : 16 bits
Video delay : 21ms
Stream size : 142 MiB (14%)

Sharing Widget


Download torrent
1.02 GB
seeders:0
leechers:0
Il signor Robinson... - Sergio Corbucci 1976 [ITA]

Trackers

tracker name Status checked seeders leechers downloads
http://10.rarbg.com/announce
private 09 May 2012 - - -
http://pow7.com/announce
outdated 09 May 2012 - - -
udp://tracker.1337x.org:80/announce
outdated 03 Jan 2012 - - -
udp://tracker.publicbt.com:80/announce
outdated 03 Jan 2012 - - -
udp://tracker.openbittorrent.com:80/announce
outdated 03 Jan 2012 - - -
http://tracker.openbittorrent.com/announce
outdated 03 Jan 2012 - - -
http://tracker.publicbt.com/announce
deleted 11 Mar 2013 - - -
http://tracker.tntvillage.org:2710/announce
error 03 Jan 2012 - - -
udp://tracker.tntvillage.org:2710/announce
pending 03 Jan 2012 0 0 0
µTorrent compatible trackers list

Locations

name
KickassTorrents
ThePirateBay
Torrent hash: 573B8DAA1E993783B26E731B4D15BD4AEAB8F787

All Comments

audio
0/10
video
0/10
please, leave only comments related to that torrent
or sign-in
Report a bug