Honey Bunny Ur Style Music Video (Idea) HD official x264 720p ~~[HimS]~~

seeders: 1
leechers: 1
updated: 3 days ago
Added on Jan 7, 2013 by HimS1910.57K in Movies > Music videos
Torrent verified. Downloaded 10 times.

Honey Bunny Ur Style Music Video (Idea) HD official x264 720p ~~[HimS]~~ (Size: 48.99 MB)
  Honey Bunny Ur Style Music Video (Idea) HD official_x264.mp4 48.99 MB

Description


General
Name : Honey Bunny Ur Style Music Video (Idea) HD official
Format : MPEG-4
Format profile : Base Media / Version 2
Codec ID : mp42
File size : 49.0 MiB
Duration : 2mn 44s
Overall bit rate mode : Variable
Overall bit rate : 2 502 Kbps

Video
ID : 1
Format : AVC
Format/Info : Advanced Video Codec
Format profile : Baseline@L1.3
Format settings, CABAC : No
Format settings, ReFrames : 2 frames
Codec ID : avc1
Codec ID/Info : Advanced Video Coding
Duration : 2mn 44s
Bit rate mode : Variable
Bit rate : 2 314 Kbps
Width : 1 280 pixels
Height : 720 pixels
Display aspect ratio : 16:9
Frame rate mode : Constant
Frame rate : 25.000 fps
Color space : YUV
Chroma subsampling : 4:2:0
Bit depth : 8 bits
Scan type : Progressive
Bits/(Pixel*Frame) : 0.100
Stream size : 45.3 MiB (92%)
Language : English

Audio
ID : 2
Format : AAC
Format/Info : Advanced Audio Codec
Format profile : LC
Codec ID : 40
Duration : 2mn 44s
Source duration : 2mn 44s
Bit rate mode : Variable
Bit rate : 186 Kbps
Maximum bit rate : 230 Kbps
Channel(s) : 2 channels
Channel positions : Front: L R
Sampling rate : 44.1 KHz
Compression mode : Lossy
Stream size : 3.64 MiB (7%)
Source stream size : 3.64 MiB (7%)
Language : English

~~~~~~~~~~~~~~~~~~~~~~~~~~~~~~~~~~~~~~~~~~~~~~~~~~

Screenshot's

image
image

~~~~~~~~~~~~~~~~~~~~~~~~~~~~~~~~~~~~~~~~~~~~~~~~~~

Please Seed After Download...!!

image

~~~~~~~~~~~~~~~~~~~~~~~~~~~~~~~~~~~~~~~~~~~~~~~~~~

Sharing Widget


Download torrent
48.99 MB
seeders:1
leechers:5
Honey Bunny Ur Style Music Video (Idea) HD official x264 720p ~~[HimS]~~



To share this torrent use the code below and insert it into comments, status messages, forum posts or your signature.

Torrent: Honey Bunny Ur Style Music V...fficial x264 720p ~~[HimS]~~

Trackers

tracker name Status
udp://9.rarbg.com:2710/announce
active
udp://tracker.openbittorrent.com:80/announce
active
udp://tracker.publicbt.com:80/announce
active
udp://tracker.istole.it:80/announce
active
http://exodus.desync.com:6969/announce
blocked
http://announce.torrentsmd.com:6969/announce
blocked
http://divxhunt.mine.su/announce.php
blocked
http://fr33dom.h33t.com:3310/announce
deleted
udp://fr33domtracker.h33t.com:3310/announce
deleted
http://divxhunt.mine.su/announce.php?passkey=bd24c9b3f1e4ebe08429248528dae864
active
ĀµTorrent compatible trackers list

Locations

name
KickassTorrents
Torrent hash: C80BF92ADEA15DBB17426F7B45F3A6F6D05C92BF

All Comments

please, leave only comments related to that torrent
or sign-in

0
DEGE-EX3527 • 03 Aug 2013, 08:51
torrent downloaded
Show comment
THANK YOU
0
Marcello4927 • 22 Mar 2013, 16:53
torrent downloaded
Show comment
Nepali Song.........

User Opinions

Report a bug