High School Musical 2 2007 DVDrip Dutch Klam

seeders: 13
leechers: 0
updated: 2 days ago
Added on Oct 19, 2011 in Movies
Torrent verified. Downloaded 10 times.

Summary:
During the summer vacations a talent show is organized in a local country club and Troy, Gabriella, Sharpay, Ryan, Chad and Taylor take part in it.
Written by Anette14152.77K
report summary
Available in versions: HDRiPDVDRip
High School Musical 2 2007 DVDrip Dutch Klam (Size: 1.66 GB)
  High School Musical 2.avi 1.66 GB
  www.Film-Test.nl.jpg 35.44 KB
  New Dutch Site.txt 117 bytes
  Torrent downloaded from Demonoid.com.txt 47 bytes
  Cover

Description

With: Zac Efron, Vanessa Hudgens and Ashley Tisdale

Iedereen van de East High Wild Cats heeft een baantje bij de Evan's Country Club, dat eigendom is van Ryan en Sharpay's ouders. Elk jaar organiseert de countryclub een talentenjacht waar ze het het op moeten nemen tegen een andere club. Deze race wordt echter lastiger dan de voorgaande jaren, omdat Sharpay Ryan laat vallen en een duet met Troy wil doen tijdens de talentenjacht.

During the summer vacations a talent show is organized in a local country club and Troy, Gabriella, Sharpay, Ryan, Chad and Taylor take part in it.

------------------ Dutch Friends ------------------
You can find my Friends at: http://www.Film-Test.nl
------ They got my dutch subs ----- and more ------

General:

Complete name : High School Musical 2\High School Musical 2.avi
Format : AVI
Format/Info : Audio Video Interleave
File size : 1.66 GiB
Duration : 1h 46mn
Overall bit rate : 2 237 Kbps

Video:

Format : MPEG-4 Visual
Format profile : Simple@L3
Format settings, BVOP : No
Format settings, QPel : No
Format settings, GMC : No warppoints
Format settings, Matrix : Default (H.263)
Codec ID : XVID
Codec ID/Hint : XviD
Duration : 1h 46mn
Bit rate : 1 842 Kbps
Width : 704 pixels
Height : 396 pixels
Display aspect ratio : 16:9
Frame rate : 25.000 fps
Color space : YUV
Chroma subsampling : 4:2:0
Bit depth : 8 bits
Scan type : Progressive
Compression mode : Lossy
Bits/(Pixel*Frame) : 0.264
Stream size : 1.37 GiB (82%)
Writing library : XviD 1.1.2 (UTC 2006-11-01)

Audio:

Format : AC-3
Format/Info : Audio Coding 3
Mode extension : CM (complete main)
Codec ID : 2000
Duration : 1h 46mn
Bit rate mode : Constant
Bit rate : 384 Kbps
Channel(s) : 6 channels
Channel positions : Front: L C R, Side: L R, LFE
Sampling rate : 48.0 KHz
Bit depth : 16 bits
Compression mode : Lossy
Stream size : 292 MiB (17%)
Alignment : Aligned on interleaves
Interleave, duration : 32 ms (0.80 video frame)

Related Torrents

torrent name size files age seed leech

Sharing Widget


Download torrent
1.66 GB
seeders:13
leechers:0
High School Musical 2 2007 DVDrip Dutch Klam

Trackers

tracker name Status
udp://tracker.openbittorrent.com:80/announce
outdated
http://pow7.com/announce
outdated
http://inferno.demonoid.me:3406/announce
outdated
udp://tracker.publicbt.com:80/announce
outdated
http://tracker.torrentbay.to:6969/announce
outdated
http://10.rarbg.com/announce
private
http://tracker.openbittorrent.com/announce
outdated
http://tracker.ilibr.org/announce
blocked
http://tracker.publicbt.com/announce
deleted
http://tracker.jamendo.com/announce
error
http://tracker.jamendo.com/announce.php
error
http://9.rarbg.com:2710/announce
private
µTorrent compatible trackers list

Locations

name
ThePirateBay
Torrent hash: 206a0e756229b6d8816dbb8d47b3e010c14f18c0

All Comments

audio
8/10
video
8/10
please, leave only comments related to that torrent
or sign-in

0
anonymous • 04 Mar 2014, 16:33 Show comment
Is this movie in dutch??
0
senilelarry182 • 20 Aug 2013, 21:41
torrent downloaded
Show comment
audio: 9video: 9
0
anna0257 • 18 Mar 2012, 09:25
torrent downloaded
Show comment
audio: 8video: 8
0
anonymous • 11 Apr 2012, 22:59 Show comment
is this movie copy great?
0
anonymous • 09 May 2012, 22:44 Show comment
yes!!!!!bitch don't doubt
0
anonymous • 09 May 2012, 22:45 Show comment
look bitch shut up
0
anonymous • 09 May 2012, 22:45 Show comment
hi bitch
0
anonymous • 09 May 2012, 22:46 Show comment
hi twin gi,knkndfljvnsdmfn,jk
0
anonymous • 28 Jul 2013, 06:17 Show comment
fuck you


User Opinions

shinah4148, zeMedia3179, Police6686, mj.baay478, pllspoilers458, senilelarry182, anna0257, bouja50, xromywillems11, rachnsteve080 ... And 1 more
A_Korunovski198, Stanzi62
Report a bug