Hatchet III 2013 SCREENER ReadNfo AC3-2 0 XviD-AXED

seeders: 1
leechers: 1
Added on Jun 13, 2013 by Silmarillion490.29K in Movies
Torrent verified. Downloaded 144 times.

Summary:
A search and recovery team heads into the haunted swamp to pick up the pieces and Marybeth learns the secret to ending the voodoo curse that has left Victor Crowley haunting and terrorizing Honey Island Swamp for decades.
Written by Anette14152.63K
report summary
Hatchet III 2013 SCREENER ReadNfo AC3-2 0 XviD-AXED (Size: 708.78 MB)
  Hatchet.III.2013.SCREENER.ReadNfo.AC3-2.0.XviD-AXED.avi 698.17 MB
  Hatchet.III.2013.SCREENER.ReadNfo.AC3-2.0.XviD-AXED.nfo 4.13 KB
  sample.avi 10.6 MB
  Torrent downloaded from extratorrent.com.txt 353 bytes

Description

image


http://www.imdb.com/title/tt1870419/


A search and recovery team heads into the haunted swamp to pick up the pieces and Marybeth learns the secret to ending the voodoo curse that has left Victor Crowley haunting and terrorizing Honey Island Swamp for decades.



Director:
BJ McDonnell

Writers:
Adam Green (characters), Adam Green

Stars:
Danielle Harris, Kane Hodder, Zach Galligan

Genres:
Action | Comedy | Horror | Thriller

Country:
USA

Language:
English




Media Info:
General
Complete name : Hatchet.III.2013.SCREENER.ReadNfo.AC3-2.0.XviD-AXED.avi
Format : AVI
Format/Info : Audio Video Interleave
File size : 698 MiB
Duration : 1h 21mn
Overall bit rate : 1 200 Kbps

Video
ID : 0
Format : MPEG-4 Visual
Format profile : Advanced Simple@L5
Format settings, BVOP : 2
Format settings, QPel : No
Format settings, GMC : No warppoints
Format settings, Matrix : Default (H.263)
Muxing mode : Packed bitstream
Codec ID : XVID
Codec ID/Hint : XviD
Duration : 1h 21mn
Bit rate : 1 065 Kbps
Width : 720 pixels
Height : 272 pixels
Display aspect ratio : 2.647
Frame rate : 23.976 fps
Color space : YUV
Chroma subsampling : 4:2:0
Bit depth : 8 bits
Scan type : Progressive
Compression mode : Lossy
Bits/(Pixel*Frame) : 0.227
Stream size : 619 MiB (89%)
Writing library : XviD 64

Audio
ID : 1
Format : AC-3
Format/Info : Audio Coding 3
Mode extension : CM (complete main)
Format settings, Endianness : Big
Codec ID : 2000
Duration : 1h 21mn
Bit rate mode : Constant
Bit rate : 128 Kbps
Channel(s) : 2 channels
Channel positions : Front: L R
Sampling rate : 44.1 KHz
Bit depth : 16 bits
Compression mode : Lossy
Stream size : 74.5 MiB (11%)
Alignment : Aligned on interleaves
Interleave, duration : 70 ms (1.67 video frames)
Interleave, preload duration : 209 ms
Title : hatchet3



SOURCE:
Screener

NOTES:
In order to remove watermarks we didn't want included in the release, we had to crop off a small portion of the top and bottom of the screen. Due to the short runtime of the film, and the source only having 2.0 audio, we decided to go with a 700MB encode for this one. Take it or leave it!



image
image
image
image

Related Torrents

torrent name size files age seed leech

Sharing Widget


Download torrent
708.78 MB
seeders:1
leechers:1
Hatchet III 2013 SCREENER ReadNfo AC3-2 0 XviD-AXED

Trackers

tracker name Status checked seeders leechers downloads
udp://9.rarbg.me:2710/announce
outdated 26 Mar 2015 - - -
udp://9.rarbg.com:2710/announce
outdated 26 Mar 2015 - - -
udp://tracker.openbittorrent.com:80/announce
outdated 29 Oct 2014 - - -
udp://tracker.istole.it:80/announce
outdated 29 Oct 2014 - - -
udp://tracker.publicbt.com:80/announce
outdated 29 Oct 2014 - - -
udp://tracker.seedceo.com:2710/announce
blocked 03 Sep 2013 - - -
udp://fr33domtracker.h33t.com:3310/announce
deleted 03 Sep 2013 - - -
udp://www.h33t.com:3310/announce
deleted 03 Sep 2013 - - -
udp://ipv4.tracker.harry.lu:80/announce
pending 29 Oct 2014 4 4 10
http://coppersurfer.tk:6969/announce
pending 03 Sep 2013 0 0 0
ĀµTorrent compatible trackers list

Locations

name
KickassTorrents
ThePirateBay
ExtraTorrent
Torrent hash: 08737CA5724D6911CE042E71840150D2F640FF7F

All Comments

audio
8/10
video
7/10
please, leave only comments related to that torrent
or sign-in

0
wealthlife1446 • 30 Nov 2013, 21:52
torrent downloaded
Show comment
audio: 9video: 9
good copy thanks
0
queenofspades343 • 18 Aug 2013, 20:41
torrent downloaded
Show comment
good copy
0
GMONEY187691829 • 24 Jul 2013, 01:55
torrent downloaded
Show comment
audio: 9video: 9
Thanks
0
pmanymen1028535 • 26 Jun 2013, 23:21
torrent downloaded
Show comment
audio: 10video: 10
Good Quality
Show More All
-1
Handy.Bags.Door2 • 28 Jul 2013, 15:25
torrent downloaded
Show comment
audio: 10video: 3
0
jodimm4124950 • 11 Jul 2013, 15:42
torrent downloaded
Show comment
audio: 9video: 8
0
wulfboxing751 • 09 Jul 2013, 07:15
torrent downloaded
Show comment
audio: 8video: 8
0
bantay2865 • 26 Jun 2013, 07:09
torrent downloaded
Show comment
audio: 9video: 9

User Opinions

Wolverine187729.72K, Stratmandoo23.23K, dvdking446362, Naskal5687, bazingatv4953, Double-D882479, wealthlife1446, stswiz848, pmanymen1028535, jwoods794768 ... And 111 more
Lezah_louise107
Report a bug