Goldberg vs The Rock (Backlash 2003) ( Surfingalien)

seeders: 0
leechers: 1
updated: yesterday
Added on Jun 11, 2011 in TV
Torrent verified. Downloaded 10 times.

  • View all The Whoopi Goldberg Show episodes
  • Episode: S20E03
  • Original run: 01 September 1992 — 02 March 1993
  • Summary:
    Two hundred (200) episodes of this syndicated show were produced in 1992 and 1993. This was a talk show with Whoopi Goldberg interviewing Hollywood, political, etc. celebrities. The show was seen five days a week.
    Written by Touro7317.68K
    report summary
Goldberg vs The Rock (Backlash 2003) ( Surfingalien) (Size: 214.74 MB)
  Goldberg vs The Rock (Backlash 2003).avi 214.74 MB

Description












Goldberg vs The Rock (Backlash 2003) ( Surfingalien)









Format : AVI

Format/Info : Audio Video Interleave

File size : 215 MiB

Duration : 27mn 33s

Overall bit rate : 1 089 Kbps

Writing application : VirtualDubMod 1.5.4.1 (build 2178/release)

Writing library : VirtualDub build 32661/release



Video

ID : 0

Format : MPEG-4 Visual

Format profile : Advanced Simple@L5

Format settings, BVOP : 1

Format settings, QPel : No

Format settings, GMC : No warppoints

Format settings, Matrix : Custom

Codec ID : XVID

Codec ID/Hint : XviD

Duration : 27mn 33s

Bit rate : 966 Kbps

Width : 512 pixels

Height : 384 pixels

Display aspect ratio : 4:3

Frame rate : 29.970 fps

Color space : YUV

Chroma subsampling : 4:2:0

Bit depth : 8 bits

Scan type : Progressive

Compression mode : Lossy

Bits/(Pixel*Frame) : 0.164

Stream size : 190 MiB (89%)

Writing library : XviD 1.2.0SMP (UTC 2006-01-08)



Audio

ID : 1

Format : MPEG Audio

Format version : Version 1

Format profile : Layer 3

Mode : Joint stereo

Mode extension : MS Stereo

Codec ID : 55

Codec ID/Hint : MP3

Duration : 27mn 33s

Bit rate mode : Variable

Bit rate : 112 Kbps

Channel(s) : 2 channels

Sampling rate : 48.0 KHz

Compression mode : Lossy

Stream size : 21.6 MiB (10%)

Alignment : Aligned on interleaves

Interleave, duration : 24 ms (0.72 video frame)

Interleave, preload duration : 582 ms










Sharing Widget


Download torrent
214.74 MB
seeders:0
leechers:1
Goldberg vs The Rock (Backlash 2003) ( Surfingalien)



To share this torrent use the code below and insert it into comments, status messages, forum posts or your signature.

Torrent: Goldberg vs The Rock (Backlash 2003) ( Surfingalien)

Trackers

tracker name Status
udp://tracker.openbittorrent.com:80/announce
active
udp://tracker.istole.it:80/announce
active
udp://tracker.publicbt.com:80/announce
active
http://tracker.openbittorrent.com/announce
active
http://tracker.istole.it/announce
active
udp://tracker.1337x.org:80/announce
active
http://genesis.1337x.org:1337/announce
active
http://exodus.desync.com:6969/announce
blocked
http://tracker.ilibr.org:6969/announce
blocked
http://tracker.ilibr.org/announce
blocked
http://tracker.publicbt.com/announce
deleted
udp://fr33domtracker.h33t.com:3310/announce
deleted
http://free.btr.kz:8888/announce
private
http://sombarato.org:6969/announce
error
http://www.moviejockey.com:2710/0000000748de8be7dd4985ad714a2bbe/announce
active
µTorrent compatible trackers list

Locations

name
1337x
Torrent hash: 7c2c4291364e16972207fc2ef8db725aa34370e1

All Comments

audio
10/10
video
10/10
please, leave only comments related to that torrent
or sign-in

0
Josh-rko4444 • 11 Oct 2013, 06:18
torrent downloaded
Show comment
audio: 10video: 10
Good memories of the old days. Thanks to all who seeded this.

User Opinions

Report a bug