Gangster Squad 2013 WEBRIP Xvid -BHRG

seeders: 0
leechers: 0
updated: 1 week ago
Added on Apr 3, 2013 in Movies
Torrent verified. Downloaded 0 times.

Summary:
It's 1949 Los Angeles, the city is run by gangsters and a malicious mobster, Mickey Cohen. Determined to end the corruption, John O'Mara assembles a team of cops, ready to take down the ruthless leader and restore peace to the city.
Written by Mr.Gooner330.23K
report summary
Gangster Squad 2013 WEBRIP Xvid -BHRG (Size: 987.51 MB)
  Usabit.com.txt 0 bytes
  Gangster Squad 2013 WEBRIP Xvid -BHRG.avi 974.86 MB
  Gangster Squad 2013 WEBRIP Xvid -BHRG Sample.avi 12.65 MB

Description

File size : 975 MiB
Duration : 1h 52mn
Overall bit rate : 1 207 Kbps

Video
ID : 0
Format : MPEG-4 Visual
Format profile : Advanced Simple@L5
Format settings, BVOP : 2
Format settings, QPel : No
Format settings, GMC : No warppoints
Format settings, Matrix : Default (H.263)
Codec ID : XVID
Codec ID/Hint : XviD
Duration : 1h 52mn
Bit rate : 1 072 Kbps
Width : 720 pixels
Height : 304 pixels
Display aspect ratio : 2.35:1
Frame rate : 23.976 fps
Color space : YUV
Chroma subsampling : 4:2:0
Bit depth : 8 bits
Scan type : Progressive
Compression mode : Lossy
Bits/(Pixel*Frame) : 0.204
Stream size : 865 MiB (89%)
Writing library : XviD 1.2.1 (UTC 2008-12-04)

Audio
ID : 1
Format : AC-3
Format/Info : Audio Coding 3
Mode extension : CM (complete main)
Format settings, Endianness : Big
Codec ID : 2000
Duration : 1h 52mn
Bit rate mode : Constant
Bit rate : 128 Kbps
Channel(s) : 2 channels
Channel positions : Front: L R
Sampling rate : 48.0 KHz
Bit depth : 16 bits
Compression mode : Lossy
Stream size : 103 MiB (11%)
Alignment : Aligned on interleaves
Interleave, duration : 64 ms (1.53 video frames)
Interleave, preload duration : 192 ms
Title : Gangster.Squad.2013.720p.WEB-DL.H264-IRONCLUB - [1] English



IMDBhttp://www.imdb.com/title/tt1321870/

Source >>>>>>720p.WEB-DL.H264-IRONCLUB....Very nice guys and thanks

Note: I watched the source and SSDD version, both nice only 2 channels floating about so since was asked by the group i went for smaller size and half decent bitrate and ran my script through it and adjusted it .......the source was real nice for web rip and support the source if filesize dosent bother you and by ball this rip of which there is about 200 out there now LOL

as requested .......released!

Sample provided


http://imgbox.com/g/B66KNmhNg9

Related Torrents

torrent name size files age seed leech

Sharing Widget


Download torrent
987.51 MB
seeders:0
leechers:0
Gangster Squad 2013 WEBRIP Xvid -BHRG



To share this torrent use the code below and insert it into comments, status messages, forum posts or your signature.

Torrent: Gangster Squad 2013 WEBRIP Xvid -BHRG

Trackers

tracker name Status
udp://tracker.istole.it:80/announce
outdated
udp://tracker.publicbt.com:80/announce
outdated
udp://9.rarbg.com:2710/announce
outdated
http://tracker.ex.ua/announce
outdated
udp://tracker.openbittorrent.com:80/announce
outdated
udp://11.rarbg.com:80/announce
private
http://exodus.desync.com:6969/announce
blocked
udp://fr33dom.h33t.com:3310/announce
deleted
udp://fr33domtracker.h33t.com:3310/announce
deleted
udp://ipv4.tracker.harry.lu:80/announce
active
ĀµTorrent compatible trackers list

Locations

name
ThePirateBay
ExtraTorrent
Torrent hash: B19F7D64BE5971500DCD9553E1C87E8BB22D97E1

All Comments

audio
9/10
video
9/10
please, leave only comments related to that torrent
or sign-in

0
woolloon25 • 02 Oct 2014, 06:33
torrent downloaded
Show comment
Thank you :-)
0
Raemphis4122 • 02 May 2013, 18:28
torrent downloaded
Show comment
audio: 9video: 9
Blimey! This is Good. Thanx! biggrin
0
anonymous • 04 Apr 2013, 09:40 Show comment
audio: 9video: 9
great quality audio-video. Picture looks like original BR disc.... Thanks BHRG !

User Opinions

Raemphis4122, bratfink2731, schon551048, woolloon25
Report a bug