Gangs Of Wasseypur 2 2012 Hindi DvDrip Hi10p 720p x264...Hon3y

seeders: 0
leechers: 0
updated: 1 week ago
Added on Oct 1, 2012 by Hon3y81.76K in Movies > Bollywood
Torrent verified. Downloaded 0 times.

Summary:
A clash between Sultan (a Qureishi dacoit chief) and Shahid Khan (a Pathan who impersonates him) leads to the expulsion of Khan from Wasseypur, and ignites a deadly blood feud spanning three generations.
Written by TheStrength54.74K
report summary
Available in versions: 1080p720pBDRipHDRiPDVDDVDRipScreener
Gangs Of Wasseypur 2 2012 Hindi DvDrip Hi10p 720p x264...Hon3y (Size: 2.42 GB)
  sample.mkv 15.41 MB
  Movie
  Screen Shots

Description

What is Hi10P ?
Hi10P is the advanced version of the normal x264. This gives more quality for the same size.
You have the ability to watch Ultra Quality movies with the new Hi10P encodes.

Hi10P needs Updated, Advanced video players.

i recommend VLC or Media Player Classic because it's pretty easy.
But, you can select any of your choice.(if problem to play then intsall k-lite codecs pack)

image

http://en.wikipedia.org/wiki/Gangs_of_Wasseypur_-_Part_2

Source : DVD9
Format : Matroska
Format version : Version 2
File size : 2.40 GiB
Duration : 2h 39mn
Overall bit rate : 2 148 Kbps


Video
ID : 1
Format : AVC
Format/Info : Advanced Video Codec
Format profile : High 10@L4.1
Format settings, CABAC : Yes
Format settings, ReFrames : 4 frames
Muxing mode : Header stripping
Codec ID : V_MPEG4/ISO/AVC
Duration : 2h 39mn
Bit rate : 1 700 Kbps
Width : 1 280 pixels
Height : 544 pixels
Display aspect ratio : 2.35:1
Original display aspect ratio : 2.35:1
Frame rate : 23.976 fps
Color space : YUV
Chroma subsampling : 4:2:0
Bit depth : 10 bits
Scan type : Progressive
Bits/(Pixel*Frame) : 0.102
Stream size : 1.85 GiB (77%)


Audio
ID : 2
Format : AC-3
Bit rate mode : Constant
Bit rate : 448 Kbps
Channel(s) : 6 channels
Channel positions : Front: L C R, Side: L R, LFE
Sampling rate : 48.0 KHz
Bit depth : 16 bits
Compression mode : Lossy
Stream size : 513 MiB (21%)
Language : Hindi
Default : Yes
Forced : No



image
image
image
image
image
image
image
image
image
image


Check the sample First

Sharing Widget


Download torrent
2.42 GB
seeders:0
leechers:0
Gangs Of Wasseypur 2 2012 Hindi DvDrip Hi10p 720p x264...Hon3y

Trackers

tracker name Status
udp://9.rarbg.com:2710/announce
active
udp://tracker.openbittorrent.com:80/announce
outdated
udp://tracker.istole.it:80/announce
outdated
udp://tracker.publicbt.com:80/announce
outdated
http://tracker.ex.ua/announce
outdated
http://exodus.desync.com/announce
outdated
udp://tracker.1337x.org:80/announce
outdated
udp://fr33dom.h33t.com:3310/announce
deleted
udp://fr33domtracker.h33t.com:3310/announce
deleted
udp://tracker.yify-torrents.com:80/announce
active
µTorrent compatible trackers list

Locations

name
KickassTorrents
ExtraTorrent
Torrent hash: DC6C2ECA8E5C272D4F08DC63EE1A04EF6923CD91

All Comments

audio
8/10
video
7/10
please, leave only comments related to that torrent
or sign-in

0
ketanpra.1800 • 14 Jun 2014, 15:25
torrent downloaded
Show comment
audio: 9video: 7
Nice Qualitysmile
0
Pyro078294 • 26 Feb 2013, 14:38 Show comment
thanks
0
redevil1480533 • 23 Jan 2013, 12:35
torrent downloaded
Show comment
audio: 8video: 8
Not a real top quality but pretty decent 720p print.
Best Print so far as on 23.01.2013
Thank you for the movie.
0
anonymous • 19 Nov 2012, 17:19 Show comment
total fake
0
13deadman228 • 12 Oct 2012, 09:00
torrent downloaded
Show comment
audio: 8video: 8
awesome movie. good torrent. though quality isnt as good. despite being 720p
0
k.abdul_kas80 • 02 Oct 2012, 18:17 Show comment
Thanx Buddy,..
0
anonymous • 05 Oct 2012, 15:26 Show comment
result?


User Opinions

Report a bug