Game of Thrones S02E04 720p HDTV x264-AVS

seeders: 26
leechers: 5
updated: yesterday
Added on Apr 23, 2012 by ChrisDen194.06K in TV
Torrent verified. Downloaded 10 times.

Game of Thrones S02E04 720p HDTV x264-AVS (Size: 1.24 GB)
  Game.of.Thrones.S02E04.720p.HDTV.x264-AVS.mkv 1.24 GB

Description

Game of Thrones - Season 02, Episode 04
HDTV x264 - AVS Release
April 23, 2012

Complete name : Game.of.Thrones.S02E04.720p.HDTV.x264-AVS/Game.of.Thrones.S02E04.720p.HDTV.x264-AVS.mkv
Format : Matroska
Format version : Version 2
File size : 1.24 GiB
Duration : 52mn 34s
Overall bit rate : 3 377 Kbps
Encoded date : UTC 2012-04-23 01:58:06
Writing application : mkvmerge v5.5.0 ( Healer ) built on Apr 6 2012 21:43:24
Writing library : libebml v1.2.3 libmatroska v1.3.0
Format : AVC
Format/Info : Advanced Video Codec
Format profile : High L4.1
Format settings, CABAC : Yes
Format settings, ReFrames : 5 frames
Muxing mode : Header stripping
Codec ID : VMPEG4/ISO/AVC
Duration : 52mn 34s
Bit rate : 2 926 Kbps
Width : 1 280 pixels
Height : 720 pixels
Display aspect ratio : 16:9
Frame rate : 23.976 fps
Color space : YUV
Chroma subsampling : 4:2:0
Bit depth : 8 bits
Scan type : Progressive
Bits/(Pixel Frame) : 0.132
Stream size : 1.07 GiB (87%)
Writing library : x264 core 122 r2184 5c85e0a
Language : English
Default : Yes
Forced : No
Format : AC-3
Format/Info : Audio Coding 3
Mode extension : CM (complete main)
Muxing mode : Header stripping
Codec ID : AAC3
Duration : 52mn 34s
Bit rate mode : Constant
Bit rate : 384 Kbps
Channel(s) : 2 channels
Channel positions : Front: L R
Sampling rate : 48.0 KHz
Bit depth : 16 bits
Compression mode : Lossy
Stream size : 144 MiB (11%)
Default : Yes
Forced : No

Related Torrents

torrent name size files age seed leech

Sharing Widget


Download torrent
1.24 GB
seeders:26
leechers:5
Game of Thrones S02E04 720p HDTV x264-AVS



To share this torrent use the code below and insert it into comments, status messages, forum posts or your signature.

Torrent: Game of Thrones S02E04 720p HDTV x264-AVS

Trackers

tracker name Status
udp://tracker.openbittorrent.com:80/announce
outdated
udp://tracker.istole.it:80/announce
outdated
udp://tracker.publicbt.com:80/announce
outdated
udp://tracker.1337x.org:80/announce
outdated
http://tracker.hexagon.cc:2710/announce
outdated
http://exodus.desync.com:6969/announce
blocked
udp://fr33domtracker.h33t.com:3310/announce
deleted
µTorrent compatible trackers list

Locations

name
KickassTorrents
Torrent hash: 44C2E4F5B08D83EB401B871C291482285E69FA21

All Comments

audio
8/10
video
9/10
please, leave only comments related to that torrent
or sign-in

0
spirit20114230 • 19 Jun 2015, 20:53
torrent downloaded
Show comment
audio: 10video: 10
Thank you
1
Pinei4 • 19 Jun 2015, 03:25 Show comment
audio: 10video: 9
Video skips a few seconds near to the end which is a bummer and ruins subtitle synchronization from that point...
0
cachapoal1376 • 08 Jul 2014, 19:52 Show comment
San Fabian agradece la grandisima calidad!
0
Stickpaladin151 • 11 Jun 2014, 08:12
torrent downloaded
Show comment
a msut watch tv series
0
Freyr6388 • 21 Nov 2013, 21:42
torrent downloaded
Show comment
audio: 8video: 9
Thank you very much uploader! Good quality!
0
Shuvo67837.64K • 25 Sep 2013, 21:49
torrent downloaded
Show comment
Thanx Man
Show More All
0
DwMicato147 • 20 Jun 2015, 03:11 Show comment
audio: 5video: 5
0
lbi20102929 • 12 Jun 2015, 18:43
torrent downloaded
Show comment
audio: 9video: 9
0
bcbud4gold1281 • 25 Jul 2014, 18:43
torrent downloaded
Show comment
audio: 10video: 10
1
Eliitti2329 • 01 Dec 2013, 22:49
torrent downloaded
Show comment
audio: 10video: 10

User Opinions

TeGiiGii4562, ammarliaqat4513, Siimple2248, markozlatni1420, pankthesnake721, DurasR293, yoooga151, Lordmars50, CJB46, shuses20 ... And 515 more
Xnerdz1545, klaudioloko743, Teh_Reh_Rooster431, Lagueto294, masilli232, guillass232, mehmetipek84, linfries29, prof8911, iliad20001 ... And 11 more
Report a bug