From Dusk Till Dawn*1996*[BluRay][1080p][ENG, POL][Sub. POL]

seeders: 2
leechers: 2
updated: 1 week ago
Added on May 12, 2010 by albedo038881 in Movies > Highres Movies
Torrent verified by 1eyedwillie105.22K, 3 years and 4 months ago. Downloaded 10 times.

Summary:
Two criminals and their hostages unknowingly seek temporary refuge in an establishment populated by vampires, with chaotic results.
Written by Equilibrium411.52K
report summary
Available in versions: 1080p720pHDRiPDVDRipx264
From Dusk Till Dawn*1996*[BluRay][1080p][ENG, POL][Sub. POL] (Size: 7.2 GB)
  From Dusk Till Dawn_BluRay_1080p_x264.mkv 7.2 GB

Description

From Dusk Till Dawn*1996*[BluRay][1080p][ENG, POL][Sub. POL]


General information:

Country: USA

Release Date: 19 January 1996

Genre: Action, Crime, Fantasy, Horror, Thriller

Director: Robert Rodriguez

Screenplay: Quentin Tarantino

Original Music by Graeme Revell

Cinematography by Guillermo Navarro

Duration: 1h 47mn

Language: English, Polish

Subtitles: Polish

Rating: 7.58/10 - 12412 votes

image


image


Cast:

Harvey Keitel ...  Jacob Fuller

George Clooney ...  Seth Gecko

Quentin Tarantino ...  Richard Gecko

Juliette Lewis ...  Kate Fuller

Ernest Liu ...  Scott Fuller

Salma Hayek ...  Satanico Pandemonium

Cheech Marin ...  Border Guard / Chet Pussy / Carlos

Danny Trejo ...  Razor Charlie

Tom Savini ...  Sex Machine

Fred Williamson ...  Frost

Michael Parks ...  Texas Ranger Earl McGraw

Brenda Hillhouse ...  Hostage Gloria Hill

John Saxon ...  FBI Agent Stanley Chase

Marc Lawrence ...  Old Timer Motel Owner

Kelly Preston ...  Newscaster Kelly Houge


Plot:

Two criminals and their hostages unknowingly seek temporary refuge in an establishment populated by vampires, with chaotic results.


Specifications:

General

Format                           : Matroska

Overall bit rate                 : 9 548 Kbps


Video

Format                           : AVC

Format/Info                      : Advanced Video Codec

Format profile                   : High@L4.0

Format settings, CABAC           : Yes

Format settings, ReFrames        : 3 frames

Muxing mode                      : Container profile=Unknown@4.0

Codec ID                         : V_MPEG4/ISO/AVC

Bit rate                         : 7 208 Kbps

Nominal bit rate                 : 7 414 Kbps

Width                            : 1 920 pixels

Height                           : 1 080 pixels

Display aspect ratio             : 16:9

Frame rate                       : 23.976 fps


Audio 1


Format                           : DTS

Format/Info                      : Digital Theater Systems

Codec ID                         : A_DTS

Bit rate mode                    : Constant

Bit rate                         : 1 510 Kbps

Channel(s)                       : 6 channels

Channel positions                : Front: L C R, Side: L R, LFE

Sampling rate                    : 48.0 KHz

Resolution                       : 24 bits

Stream size                      : 1.14 GiB (16%)

Language                         : English


Audio 2

Format                           : AC-3

Format/Info                      : Audio Coding 3

Codec ID                         : A_AC3

Bit rate mode                    : Constant

Bit rate                         : 320 Kbps

Channel(s)                       : 6 channels

Channel positions                : Front: L C R, Side: L R, LFE

Sampling rate                    : 48.0 KHz

Stream size                      : 247 MiB (3%)

Language                         : Polish


Text

Format                           : UTF-8

Codec ID                         : S_TEXT/UTF8

Codec ID/Info                    : UTF-8 Plain Text

Language                         : Polish

 

Related Torrents

torrent name size files age seed leech

Sharing Widget


Download torrent
7.2 GB
seeders:2
leechers:2
From Dusk Till Dawn*1996*[BluRay][1080p][ENG, POL][Sub. POL]

Trackers

tracker name Status
udp://open.demonii.com:1337/announce
outdated
udp://tracker.openbittorrent.com:80/announce
outdated
udp://tracker.publicbt.com:80/announce
outdated
udp://tracker.istole.it:80/announce
outdated
udp://tracker.ccc.de:80/announce
deleted
µTorrent compatible trackers list

Locations

name
KickassTorrents
ThePirateBay
SumoTorrent
Torrent hash: dc908456623425ee0d256e1dffba05675f8c3654

All Comments

audio
9/10
video
9/10
please, leave only comments related to that torrent
or sign-in

0
barok129211 • 28 Sep 2014, 01:10 Show comment
audio: 10video: 10
Thanks!
0
freakb0y4803 • 06 Aug 2014, 11:12
torrent downloaded
Show comment
audio: 10video: 10
Superb quality. Excellent torrent, thank you so much.
0
buyout251302 • 20 Oct 2012, 20:15
torrent downloaded
Show comment
audio: 8video: 8
nice movie :)
0
monty88555 • 03 Apr 2012, 03:14
torrent downloaded
Show comment
audio: 10video: 10
perfect!!!
0
matfle291 • 31 Mar 2012, 04:09
torrent downloaded
Show comment
audio: 10video: 10
great quality 10/10 slow to download :( thanks for the upload
0
anonymous • 11 Feb 2012, 16:09 Show comment
audio: 9video: 4
Fuck this --subme=1 you gotta be kidding!!!
0
Levittoux28 • 24 Mar 2011, 10:23
torrent downloaded
Show comment
audio: 10video: 10
I'm very sorry for comment/delete - problem with my browser!
Good 1080 torrent with Polish subtitles. (Minuses: not very good translation and lacj of English subtitles)
Dobry torrent z filmem w HD z polskimi napisami. Tłumaczenie napisów niezbyt dobre i brak ich angielskiej wersji.
0
TorrJab84 • 04 Sep 2010, 23:15
torrent downloaded
Show comment
audio: 10video: 10
Nice work. Good pic & audio.

User Opinions

BrTN4085, ZipsignSN4060, Tintapper2006, emc2tolga1525, intelligentj1136, nwg5817404, MrEdpoO92, TorrJab84, joeyblood83, Levittoux28 ... And 24 more
Report a bug