Flypaper 2011 R5 XviD Feel-Free

seeders: 0
leechers: 1
updated: 3 days ago
Added on Sep 19, 2011 by feel-free20.28K in Movies
Torrent verified. Downloaded 10 times.

Summary:
A man caught in the middle of two simultaneous robberies at the same bank desperately tries to protect the teller with whom he's secretly in love.
Written by xDominicx178.18K
report summary
Available in versions: 1080p720pHDRiPDVDRipScreener
Flypaper 2011 R5 XviD Feel-Free (Size: 794.09 MB)
  94749818456704360413.jpg 79.59 KB
  Flypaper 2011 R5 XviD Feel-Free.avi 792.76 MB
  Flypaper 2011 R5 XviD Feel-Free.nfo 2.63 KB
  Torrent downloaded from extratorrent.com.txt 171 bytes
  vlcsnap-00001.png 271.53 KB
  vlcsnap-00002.png 217.17 KB
  vlcsnap-00003.png 190.46 KB
  vlcsnap-00004.png 301.56 KB
  vlcsnap-00005.png 297.13 KB

Description

image


Genre:Comedy | Crime
Language:English
IMDb:http://www.imdb.com/title/tt1541160/
Source:Russian/Audio.DVDSCR Thanks!

Format : AVI
Format/Info : Audio Video Interleave
File size : 793 MiB
Duration : 1h 23mn
Overall bit rate : 1 324 Kbps

Video
ID : 0
Format : MPEG-4 Visual
Format profile : Advanced Simple@L5
Format settings, BVOP : Yes
Format settings, QPel : No
Format settings, GMC : No warppoints
Format settings, Matrix : Default (H.263)
Muxing mode : Packed bitstream
Codec ID : XVID
Codec ID/Hint : XviD
Duration : 1h 23mn
Bit rate : 1 186 Kbps
Width : 720 pixels
Height : 304 pixels
Display aspect ratio : 2.35:1
Frame rate : 25.000 fps
Color space : YUV
Chroma subsampling : 4:2:0
Bit depth : 8 bits
Scan type : Progressive
Bits/(Pixel*Frame) : 0.217
Stream size : 710 MiB (90%)
Writing library : XviD 1.2.1 (UTC 2008-12-04)

Audio
ID : 1
Format : MPEG Audio
Codec ID : 55
Codec ID/Hint : MP3
Duration : 1h 23mn
Bit rate : 128 Kbps
Channel(s) : 2 channels
Sampling rate : 44.1 KHz
Stream size : 76.6 MiB (10%)
Alignment : Split accross interleaves
Interleave, duration : 40 ms (1.00 video frame)
Interleave, preload duration : 500 ms


Plot:
A man caught in the middle of two simultaneous robberies at the same bank desperately tries to protect the teller with whom he's secretly in love

TRAILER:
[embed=youtube]http://www.youtube.com/watch?v=V03YB2-OFYQ[/embed]


Source

image
image


Feel-Free

image
image
image
image
image


Greets:

INK,CRYS,IMAGINE,LKRG,FXG,3Li,FLAWL3SS,TA,iLLUSiON,ViSiON,DTRG SAFCuk009,LU,TheFalcon007,MYSTiC,PrisM,Noir,WBZ,LAP,Rx,Kingdom,SAFCuk009+Fabreezy,HDLiTE,TWiZTED,ExtraTorrentRG.ELEKTRI4KA,MAGNAT,CM8
And to all the other p2p grps past and present



Make sure its a real Feel-Free release @ http://extratorrent.com

Thanks to all who promotes release Feel-Free !!!

Related Torrents

torrent name size files age seed leech

Sharing Widget


Download torrent
794.09 MB
seeders:0
leechers:1
Flypaper 2011 R5 XviD Feel-Free



To share this torrent use the code below and insert it into comments, status messages, forum posts or your signature.

Torrent: Flypaper 2011 R5 XviD Feel-Free

Trackers

tracker name Status
http://10.rarbg.com/announce
private
http://pow7.com/announce
active
http://tracker.istole.it/announce
active
udp://tracker.1337x.org:80/announce
active
udp://tracker.publicbt.com:80/announce
active
http://tracker.openbittorrent.com/announce
active
udp://tracker.openbittorrent.com:80/announce
active
udp://tracker.istole.it:80/announce
active
http://tracker.publicbt.com/announce
deleted
http://9.rarbg.com:2710/announce
private
http://tracker.novalayer.org:6969/announce
active
µTorrent compatible trackers list

Locations

name
KickassTorrents
ExtraTorrent
ThePirateBay
Limetorrents
BTjunkie
Torrent hash: 3DE22C7B039DC2245F7F74C2C9E09BA97A375C4D

All Comments

audio
8/10
video
8/10
please, leave only comments related to that torrent
or sign-in

0
nksrink92 • 19 Oct 2011, 17:35
torrent downloaded
Show comment
audio: 8video: 8
movie ok...good torrent
0
dunhorse20 • 19 Oct 2011, 01:56
torrent downloaded
Show comment
good
0
sazcybercafe357 • 16 Oct 2011, 08:36
torrent downloaded
Show comment
audio: 8video: 8
Great & hilarious movie with some suspense...
Thanks..
(audio gaps on abusive words)
*Always Respect uploaders*
image
0
AnnKynaston468 • 15 Oct 2011, 11:35
torrent downloaded
Show comment
audio: 6video: 10
lots of audio gaps puts you off the movie go for a better copy.
0
anonymous • 09 Oct 2011, 04:31 Show comment
audio: 9video: 5
A lot of audio gaps where swear words / offensive words have been cut from audio
0
tani13281 • 05 Oct 2011, 12:45
torrent downloaded
Show comment
audio: 7video: 7
tanx good pic and sound, but it cuts out the swear words which are plenty btw and makes it annoying
0
Musadiq_Khan93 • 29 Sep 2011, 16:36
torrent downloaded
Show comment
audio: 8video: 8
audio 8/10
video 8/10
movie 4/10
0
Stef2011560 • 28 Sep 2011, 03:08
torrent downloaded
Show comment
audio: 9video: 9
Great copy, A:9, V:9, M:9. Film a bit hilarious, and with some suspense. Thx
Show More All
0
inglorious871373 • 05 Oct 2011, 18:09
torrent downloaded
Show comment
audio: 8video: 9
0
Trinity11003954 • 05 Oct 2011, 16:26
torrent downloaded
Show comment
audio: 10video: 10

User Opinions

Trinity11003954, missmovie2411, inglorious871373, leon801129, incredibleDNA986, karthickn782, gnaahh510, acubelexus320, abshake202, nksrink92 ... And 23 more
XxrdnxX240, mixy78p150
Report a bug