Evolusi KL Drift 2 2010 DVDRip XviD-FEEL-FREE

seeders: 0
leechers: 0
updated: 2 days ago
Added on Jun 17, 2010 in Movies > Asian
Torrent verified. Downloaded 10 times.

Summary:
No summary yet
Available in versions: DVDRip
Evolusi KL Drift 2 2010 DVDRip XviD-FEEL-FREE (Size: 877.96 MB)
  Evolusi.KL.Drift.2.2010.DVDRip.XviD-FEEL-FREE.avi 876.78 MB
  vlcsnap-2010-06-17-18h36m45s130.png 324.17 KB
  vlcsnap-2010-06-17-18h36m25s166.png 316.54 KB
  vlcsnap-2010-06-17-18h36m58s4.png 242.76 KB
  vlcsnap-2010-06-17-18h36m52s203.png 181.51 KB
  Evolusi.KL.Drift.2.2010.DVDRip.XviD-FEEL-FREE.avi_thumbs_[2010.06.17_18.34.25].jpg 134.22 KB
  7evolusikldrift200.jpg 6.9 KB
  Evolusi.KL.Drift.2.2010.DVDRip.XviD-FEEL-FREE.nfo 2.78 KB

Description


image

Genre:Action / Drama

Language:Malay

IMDb:http://evolusikldrift2.com/

:http://www.cinema.com.my/movies/movie_contents.aspx?search=2010.6380.evolusikldrift2.11881

Encoder: Tony2

.............................................

General

Complete name : Evolusi.KL.Drift.2.2010.DVDRip.XviD-FEEL-FREE

Format : AVI

Format/Info : Audio Video Interleave

File size : 877 MiB

Duration : 1h 31mn

Overall bit rate : 1 340 Kbps

..............................................

Video

Format : xvid

Codec ID : xvid

Duration : 1h 31mn

Bit rate : 1 199 Kbps

Width : 704 pixels

Height : 304 pixels

Display aspect ratio : 2.35:1

Frame rate : 25.000 fps

Resolution : 24 bits

Bits/(Pixel*Frame) : 0.224

Stream size : 785 MiB (89%)

..............................................

Audio

ID : 1

Format : MPEG Audio

Format version : Version 1

Format profile : Layer 3

Format settings, Mode : Joint stereo / MS Stereo

Codec ID : 55

Codec ID/Hint : MP3

Duration : 1h 31mn

Bit rate mode : Constant

Bit rate : 128 Kbps

Channel(s) : 2 channels

Sampling rate : 48.0 KHz

Resolution : 16 bits

Stream size : 83.7 MiB (10%)

Alignment : Aligned on interleaves

Interleave, duration : 24 ms (0.60 video frame)

Interleave, preload duration : 24 ms

Writing library : LAME3.97

.............................................

Plot:

Racing life between Zack (Syamsul Yusof) and Sham (Farid Kamil) has not ended yet. Zack, an illegal racer before, now is a professional drifter. After the accident, Sham no longer drifts because of his broken leg and has to walk with the help of crutches. Then comes a female professional drifter named Aleeya (Scha Alyahya). Joe, who managed to escape from death from the accident, wants revenge on Zack. Joe's assistant Ery too wants revenge on Zack because his best friend Karl got locked up in jail because of him. Joe wants to monopolise the whole drug business syndicate in KL, where Inspector Kamal suspects him for crimes that involve deaths.

...................................................

TRAILER:

[embed=youtube]http://www.youtube.com/watch?v=rX3K2mC2Tn4&feature=player_embedded[/embed]

image

image

image

image




Related Torrents

torrent name size files age seed leech

Sharing Widget


Download torrent
877.96 MB
seeders:1
leechers:0
Evolusi KL Drift 2 2010 DVDRip XviD-FEEL-FREE



To share this torrent use the code below and insert it into comments, status messages, forum posts or your signature.

Torrent: Evolusi KL Drift 2 2010 DVDRip XviD-FEEL-FREE

Trackers

tracker name Status
udp://tracker.openbittorrent.com:80/announce
active
udp://tracker.publicbt.com:80/announce
active
http://exodus.1337x.org/announce
active
http://nemesis.1337x.org/announce
active
http://genesis.1337x.org:1337/announce
active
http://tracker.openbittorrent.com/announce
active
http://tracker.publicbt.com/announce
deleted
µTorrent compatible trackers list

Locations

name
1337x
ExtraTorrent
Torrent hash: 85a904234348e3c3ff3e623c95e878c668c5842a

All Comments

audio
4/10
video
3/10
please, leave only comments related to that torrent
or sign-in

0
anonymous • 01 Jul 2011, 18:12 Show comment
дайте скорости! встаньте на раздачу пожалуйста!!
0
anonymous • 11 Feb 2011, 17:19 Show comment
audio: 4video: 5
0
zarof50 • 05 Aug 2010, 00:19
torrent downloaded
Show comment
audio: 5video: 5
0
unqul1986194 • 28 Jun 2010, 20:05
torrent downloaded
Show comment
audio: 4video: 1

User Opinions

Report a bug