Advertising (remove)

Defloration of Pretty Nelly Falusiy

seeders: 2
leechers: 0
updated: 22 hours ago
Added on Oct 24, 2012 by therock76140 in XXX > Video
Torrent verified. Downloaded 10 times.

Defloration of Pretty Nelly Falusiy (Size: 148.38 MB)
  First Time Pretty Nelly Falusiy Defloration-therock7-s7torrent.mkv 148.37 MB
  Torrent downloaded from extratorrent.com.txt 806 bytes
  Torrent downloaded from Kat.ph.txt 122 bytes
Advertising (remove)

Description

Defloration of Pretty Nelly Falusiy

with English Sub-Tittles

RIP INFORMATION:
General
Complete name : Defloration of Pretty Nelly Falusiy.mkv
Format : Matroska
Format version : Version 2
File size : 148 MiB
Duration : 23mn 25s
Overall bit rate : 886 Kbps

Video
ID : 1
Format : AVC
Format/Info : Advanced Video Codec
Format profile : Baseline@L3.0
Format settings, CABAC : No
Format settings, ReFrames : 1 frame
Format settings, GOP : M=1, N=12
Codec ID : V_MPEG4/ISO/AVC
Duration : 23mn 25s
Bit rate : 740 Kbps
Nominal bit rate : 900 Kbps
Width : 720 pixels
Height : 480 pixels
Display aspect ratio : 3:2
Frame rate : 29.970 fps
Standard : NTSC
Color space : YUV
Chroma subsampling : 4:2:0
Bit depth : 8 bits
Scan type : Progressive
Bits/(Pixel*Frame) : 0.071
Stream size : 124 MiB (84%)
Writing library : x264 core 77
Language : English

Audio
ID : 2
Format : MPEG Audio
Format version : Version 1
Format profile : Layer 3
Mode : Joint stereo
Mode extension : MS Stereo
Codec ID : A_MPEG/L3
Codec ID/Hint : MP3
Duration : 23mn 25s
Bit rate mode : Constant
Bit rate : 128 Kbps
Channel(s) : 2 channels
Sampling rate : 44.1 KHz
Compression mode : Lossy
Delay relative to video : -67ms
Stream size : 21.4 MiB (14%)
Writing library : LAME3.98.2
Language : English


SCREEN 1
SCREEN 2

image

Sharing Widget


Download torrent
148.38 MB
seeders:2
leechers:0
Defloration of Pretty Nelly Falusiy



To share this torrent use the code below and insert it into comments, status messages, forum posts or your signature.

Torrent: Defloration of Pretty Nelly Falusiy

Trackers

tracker name Status
udp://tracker.publicbt.com:80/announce
active
udp://tracker.openbittorrent.com:80/announce
active
udp://tracker.istole.it:80/announce
active
udp://9.rarbg.com:2710/announce
active
udp://tracker.1337x.org:80/announce
active
http://tracker.coppersurfer.tk:6969/announce
deleted
udp://fr33dom.h33t.com:3310/announce
deleted
udp://fr33domtracker.h33t.com:3310/announce
deleted
http://www.h33t.com:3310/announce
deleted
ĀµTorrent compatible trackers list

Locations

name
KickassTorrents
Torrent hash: 44B2D8483F00C3D7E0045F37BB8213433ED67F49

Uploader Comments

0
Mujeeb95395 • 28 Oct 2012, 22:33
torrent downloaded
It was good but fake:(
0
therock76140 • 30 Nov 2012, 08:24
Uploader
Y FAKE?

All Comments

audio
0/10
video
0/10
please, leave only comments related to that torrent
or sign-in

0
Mujeeb95395 • 28 Oct 2012, 22:33
torrent downloaded
Show comment
It was good but fake:(
0
therock76140 • 30 Nov 2012, 08:24
Uploader
Show comment
Y FAKE?


User Opinions

Shuvo67837.64K, rotam1232966, rockware1287, kunden496, Timztz4212, yuj47
abuohabtalib55
Report a bug