Cowboys and Aliens DVDRip XVID AC3-TRiNiTY

seeders: 0
leechers: 0
updated: yesterday
Added on Nov 20, 2011 in Movies
Torrent verified. Downloaded 0 times.

  • add Cowboys & Aliens to bookmarks
  • Release date: 29 July 2011
  • Writers: Roberto Orci (screenplay), Alex Kurtzman (screenplay), Damon Lindelof (screenplay), Mark Fergus (screenplay), Hawk Ostby (screenplay), Mark Fergus (screen story), Hawk Ostby (screen story), Steve Oedekerk (screen story), Scott Mitchell Rosenberg (Platinum
  • Director: Jon Favreau
Summary:
A spaceship arrives in Arizona, 1873, to take over the Earth, starting with the Wild West region. A posse of cowboys and natives are all that stand in their way.
Written by 5fingerdis62.55K
report summary
Cowboys and Aliens DVDRip XVID AC3-TRiNiTY (Size: 1.4 GB)
  Allycat TRINITY.nfo 3.31 KB
  Cowboys and Aliens DVDRip XVID AC3-TRiNiTY.avi 1.4 GB
  Speed.cd read me.txt 47 bytes
  www.Speed.Cd.txt 47 bytes

Description

-
http://www.Speed.Cd fast and The Hottest Private Tracker on the net

signup is open now

Please Seed back to make the speed Faster!!!

------------------nfo--------------------------
-
ooooooooooooo ooooooooo. o8o ooooo ooo o8o ooooooooooooo oooooo oooo
8' 888 `8 `888 `Y88. `"' `888b. `8' `"' 8' 888 `8 `888. .8'
888 888 .d88' oooo 8 `88b. 8 oooo 888 `888. .8'
888 888ooo88P' `888 8 `88b. 8 `888 888 `888.8'
888 888`88b. 888 8 `88b.8 888 888 `888'
888 888 `88b. 888 8 `888 888 888 888
o888o o888o o888o o888o o8o `8 o888o o888o o888o
___________ ______
______ ___ /__ /____ _____________ __ /
_ __ `/_ /__ /__ / / / ___/ __ `/ __/
/ /_/ /_ / _ / _ /_/ // /__ / /_/ // /
\__,_/ /_/ /_/ _\__, / \___/ \__,_/ \__/
/____/








EnCoDer:Allycat



General
Complete name : Cowboys and Aliens DVDRip XVID AC3-TRiNiTY.avi
Format : AVI
Format/Info : Audio Video Interleave
File size : 1.40 GiB
Duration : 1h 58mn
Overall bit rate : 1 693 Kbps
Writing library : VirtualDub build 30091/release

Video
ID : 0
Format : MPEG-4 Visual
Format profile : Advanced Simple@L5
Format settings, BVOP : 1
Format settings, QPel : No
Format settings, GMC : No warppoints
Format settings, Matrix : Default (H.263)
Muxing mode : Packed bitstream
Codec ID : XVID
Codec ID/Hint : XviD
Duration : 1h 58mn
Bit rate : 1 300 Kbps
Width : 720 pixels
Height : 304 pixels
Display aspect ratio : 2.35:1
Frame rate : 25.000 fps
Color space : YUV
Chroma subsampling : 4:2:0
Bit depth : 8 bits
Scan type : Progressive
Compression mode : Lossy
Bits/(Pixel*Frame) : 0.238
Stream size : 1.08 GiB (77%)
Writing library : XviD 1.2.1 (UTC 2008-12-04)

Audio
ID : 1
Format : AC-3
Format/Info : Audio Coding 3
Mode extension : CM (complete main)
Codec ID : 2000
Duration : 1h 58mn
Bit rate mode : Constant
Bit rate : 384 Kbps
Channel(s) : 6 channels
Channel positions : Front: L C R, Side: L R, LFE
Sampling rate : 48.0 KHz
Bit depth : 16 bits
Compression mode : Lossy
Stream size : 326 MiB (23%)
Alignment : Aligned on interleaves
Interleave, duration : 40 ms (1.00 video frame)
Interleave, preload duration : 512 ms

Related Torrents

torrent name size files age seed leech

Sharing Widget


Download torrent
1.4 GB
seeders:0
leechers:0
Cowboys and Aliens DVDRip XVID AC3-TRiNiTY



To share this torrent use the code below and insert it into comments, status messages, forum posts or your signature.

Torrent: Cowboys and Aliens DVDRip XVID AC3-TRiNiTY

Trackers

tracker name Status
http://tracker.openbittorrent.com/announce
active
udp://tracker.openbittorrent.com:80/announce
active
udp://tracker.publicbt.com:80/announce
active
http://tracker.torrentbay.to:6969/announce
active
http://tracker.publicbt.com/announce
deleted
ĀµTorrent compatible trackers list

Locations

name
ThePirateBay
Torrent hash: 48163d85a1b1defff1eb2fa8c8abd50e2c3268a2

All Comments

audio
0/10
video
0/10
please, leave only comments related to that torrent
or sign-in

-1
anonymous • 20 Nov 2011, 15:22 Show comment
audio: 1video: 1
waste of bandwidth
Report a bug