BackWoods 2008 DVDRip Xvid BigPerm LKRG

seeders: 0
leechers: 0
updated: 2 days ago
Added on Apr 29, 2012 in Movies
Torrent verified. Downloaded 0 times.

Summary:
While camping in Jasper Park up North California, the couple Tom Alan Smithee and Gwen Marie Holden are attacked by a group of strangers; Tom is immediately killed and Gwen is abducted by the men to an underground facility to breed. A couple of months later, in Los Angeles, the manager of a video game company Johnny Dash invites the employees Adam Benson, Lee, Maggie, Perry, Chris Basso, Paul and Mike Chen to participate in a 'Battle Royal' paint-ball game at a corporate retreat in the Jasper Park to practice executive tactics. When they arrive at a gas station, they refuel their trucks and see a poster saying that Gwen and Tom are missing since 30 February 2008 and have been last seen in Jasper Park. They head to a former military reservation area in the national park and camp. During the night, Adam has the sensation that the group is under observation and he unsuccessfully warns his colleagues. When the game starts on the next morning, the group finds that their training is more than a paint-ball game, but a fight for survival in a hostile ground whose inhabitants are maniac lunatics.
Written by Lovely_2k74.6K
report summary
Available in versions: DVDRip
BackWoods 2008 DVDRip Xvid BigPerm LKRG (Size: 785.17 MB)
  BackWoods_BP-LKRG.avi 785.16 MB
  LKRG.nfo 9.21 KB
  Downloaded from ExtraTorrent.com.txt 207 bytes

Description




PLOT
While camping in Jasper Park up North California, the couple Tom Alan Smithee and Gwen Marie Holden are attacked by a group

of strangers; Tom is immediately killed and Gwen is abducted by the men to an underground facility to breed.
General Info



Encoded By .......: BigPerm

Runtime ..........: 1h 24mn

File Size ........: 785 MB

Resolution .......: 720 x 400

IMDb URL .........: http://www.imdb.com/title/tt1153100/
/>
Genre ............: Action,Horror,Thriller

Language .........: English

Subtitles ........: None

Video

ID : 0

Format : MPEG-4 Visual

Format profile : Advanced Simple@L5

Format settings, BVOP : Yes

Format settings, QPel : No

Format settings, GMC : No warppoints

Format settings, Matrix : Default (H.263)

Muxing mode : Packed bitstream

Codec ID : XVID

Codec ID/Hint : XviD

Duration : 1h 24mn

Bit rate : 844 Kbps

Width : 720 pixels

Height : 400 pixels

Display aspect ratio : 16:9

Frame rate : 23.976 fps

Color space : YUV

Chroma subsampling : 4:2:0

Bit depth : 8 bits

Scan type : Progressive

Compression mode : Lossy

Bits/(Pixel*Frame) : 0.122

Stream size : 509 MiB (65%)

Writing library : XviD 64

Audio

ID : 1

Format : AC-3

Format/Info : Audio Coding 3

Mode extension : CM (complete main)

Codec ID : 2000

Duration : 1h 24mn

Bit rate mode : Constant

Bit rate : 448 Kbps

Channel(s) : 6 channels

Channel positions : Front: L C R, Side: L R, LFE

Sampling rate : 48.0 KHz

Bit depth : 16 bits

Compression mode : Lossy

Stream size : 270 MiB (34%)

Alignment : Split accross interleaves

Interleave, duration : 42 ms (1.00 video frame)

Interleave, preload duration : 500 msScreens

Sharing Widget


Download torrent
785.17 MB
seeders:0
leechers:0
BackWoods 2008 DVDRip Xvid BigPerm LKRG



To share this torrent use the code below and insert it into comments, status messages, forum posts or your signature.

Torrent: BackWoods 2008 DVDRip Xvid BigPerm LKRG

Trackers

tracker name Status
http://t1.pow7.com/announce
active
http://secure.pow7.com/announce
active
udp://tracker.istole.it:80/announce
active
udp://tracker.openbittorrent.com:80/announce
active
udp://tracker.publicbt.com:80/announce
active
http://tracker.torrentbay.to:6969/announce
active
http://tracker.istole.it/announce
active
http://fr33dom.h33t.com:3310/announce
deleted
http://tracker.publicbt.com/announce
deleted
udp://fr33domtracker.h33t.com:3310/announce
deleted
ĀµTorrent compatible trackers list

Locations

name
ExtraTorrent
Torrent hash: F810AC20B9BC99897D3D2C84CB6518DE705B98D4

All Comments

audio
0/10
video
0/10
please, leave only comments related to that torrent
or sign-in

0
xamial8765 • 18 Jun 2012, 01:37
torrent downloaded
Show comment
stopped at 36.2and hasnt moved in 2 days

User Opinions

OgreV6280
xamial8765
Report a bug