Anywhere But Here 1999 iNTERNAL DVDRip XviD-SPRiNTER

seeders: 1
leechers: 0
updated: 2 days ago
Added on Mar 27, 2010 in Movies
Torrent verified. Downloaded 10 times.

Summary:
A mother and daughter search for success in Beverly Hills.
Written by phoenix66118.94K
report summary
Available in versions: 720pDVDRip
Anywhere But Here 1999 iNTERNAL DVDRip XviD-SPRiNTER (Size: 1.38 GB)
  read-me.txt 420 bytes
  sprinter-anywbh.nfo 7 KB
  www.torrentday.com.txt 420 bytes
  CD1
  CD2

Description

http://www.torrentday.com - Your Key To The Scene.


http://www.torrentday.com : Clean RAR Scene Releases!


Enjoy =)

...................................NFO:....................................

.































ARTiCHOKE
























SPRiNTER proudly presents...



Anywhere.But.Here.1999.iNTERNAL.DVDRip.XviD-SPRiNTER
http://www.imdb.com/title/tt0149691/
Subtitles: Espanol, France, English.

Date: 2010.03

Director: Wayne Wang
Plot: A mother and daughter search for success in Beverly Hills.
Genre: Comedy | Drama

Cast

Susan Sarandon ... Adele August
Natalie Portman ... Ann August
Hart Bochner ... Josh Spritzer
Eileen Ryan ... Lillian
Ray Baker ... Ted
John Diehl ... Jimmy
Shawn Hatosy ... Benny
Bonnie Bedelia ... Carol
Faran Tahir ... Hisham Badir
Shishir Kurup ... Hisham Badir (voice)
Samantha Goldstein ... 4 Year Old Ann
Scott Burkholder ... Man with Mercedes
Yvonna Kopacz Wright ... Assistant Hotel Manager (as Yvonna Kopacz)
Eva Amurri ... Girl on T.V.
Kieren van den Blink ... Girl on T.V.




Release notes



Enjoy!




Greetings




NTX aAF FiCO HNR CiNEFiLE AEN HUMANiSM




Details



Format : AVI
Format/Info : Audio Video Interleave
File size : 1.37 GiB
Duration : 1h 53mn
Overall bit rate : 1 719 Kbps
Writing application : VirtualDubMod 1.5.10.2 (build 2540/release)
Writing library : VirtualDubMod build 2540/release

Video
ID : 0
Format : MPEG-4 Visual
Format profile : AdvancedSimple@L5
Format settings, BVOP : Yes
Format settings, QPel : No
Format settings, GMC : No warppoints
Format settings, Matrix : Default (H.263)
Codec ID : XVID
Codec ID/Hint : XviD
Duration : 1h 53mn
Bit rate : 1 261 Kbps
Width : 640 pixels
Height : 272 pixels
Display aspect ratio : 2.35:1
Frame rate : 23.976 fps
Resolution : 24 bits
Colorimetry : 4:2:0
Scan type : Progressive
Bits/(Pixel*Frame) : 0.302
Stream size : 1.00 GiB (73%)
Writing library : XviD 1.2.1 (UTC 2008-12-04)

Audio
ID : 1
Format : AC-3
Format/Info : Audio Coding 3
Codec ID : 2000
Duration : 1h 53mn
Bit rate mode : Constant
Bit rate : 448 Kbps
Channel(s) : 5 channels
Channel positions : Front: L C R, Surround: L R
Sampling rate : 48.0 KHz
Video delay : 1ms
Stream size : 365 MiB (26%)
Alignment : Split accross interleaves
Interleave, duration : 42 ms (1.00 video frame)
Interleave, preload duration : 500 ms

Related Torrents

torrent name size files age seed leech

Sharing Widget


Download torrent
1.38 GB
seeders:1
leechers:1
Anywhere But Here 1999 iNTERNAL DVDRip XviD-SPRiNTER



To share this torrent use the code below and insert it into comments, status messages, forum posts or your signature.

Torrent: Anywhere But Here 1999 iNTERNAL DVDRip XviD-SPRiNTER

Trackers

tracker name Status
udp://tracker.publicbt.com:80/announce
active
http://tracker.openbittorrent.com/announce
active
udp://tracker.openbittorrent.com:80/announce
active
http://tracker.publicbt.com/announce
deleted
ĀµTorrent compatible trackers list

Locations

name
ThePirateBay
Torrentzap
SumoTorrent
Torrent hash: 5ecfd978acbce26c70087773ecbf43b76d7f056e

All Comments

audio
5/10
video
6/10
please, leave only comments related to that torrent
or sign-in

0
BIBICOLOMBIA211 • 24 Jul 2013, 04:05
torrent downloaded
Show comment
graciasssssssssssssss.tongue
0
stayricon9428 • 08 Jan 2013, 14:20 Show comment
Thanks
I hope it is not virus
0
luckystrike132290 • 02 Jun 2011, 06:40
torrent downloaded
Show comment
audio: 7video: 8
thank you.
0
anonymous • 16 Feb 2011, 16:56 Show comment
audio: 1video: 1
Downloaded but I couldn't play it on VLC. Now im trying a different one.
0
kykio06922 • 14 Jan 2011, 23:30
torrent downloaded
Show comment
audio: 9video: 9
Reminds of my mother.

User Opinions

stayricon9428, georjec3680, Trevo5252802, luckystrike132290, kykio06922, cedry2k586, rcmink538, Mave81516, jaume600269, CHUCKYDOLL47 ... And 10 more
toozle196, Tessa198343
Report a bug