A Very Harold & Kumar 3D Christmas 2011 TS XviD - MiSTERE

seeders: 0
leechers: 0
updated: 1 week ago
Added on Nov 21, 2011 by legend65.37K in Movies > 3D Movies
Torrent verified. Downloaded 0 times.

Summary:
Six years after their Guantanamo Bay adventure, stoner buds Harold Lee and Kumar Patel cause a holiday fracas by inadvertently burning down Harold's father-in-law's prize Christmas tree.
Written by TheStrength54.74K
report summary
Available in versions: 1080p720pDVDRipTeleSync
A Very Harold & Kumar 3D Christmas 2011 TS XviD - MiSTERE (Size: 1.24 GB)
  sample.avi 13.27 MB
  Torrent downloaded from extratorrent.com.txt 353 bytes
  A Very Harold & Kumar 3D Christmas 2011 TS XviD - MiSTERE.avi 1.23 GB
  A Very Harold & Kumar 3D Christmas 2011 TS XviD - MiSTERE.nfo 2.53 KB

Description

image
A Very Harold & Kumar 3D Christmas 2011 TS XviD - MiSTERE

http://www.imdb.com/title/tt1268799/

Video
ID : 0
Format : MPEG-4 Visual
Format profile : Advanced Simple@L5
Format settings, BVOP : 2
Format settings, QPel : No
Format settings, GMC : No warppoints
Format settings, Matrix : Default (H.263)
Muxing mode : Packed bitstream
Codec ID : XVID
Codec ID/Hint : XviD
Duration : 1h 20mn
Bit rate : 2 041 Kbps
Width : 720 pixels
Height : 304 pixels
Display aspect ratio : 2.35:1
Frame rate : 24.000 fps
Color space : YUV
Chroma subsampling : 4:2:0
Bit depth : 8 bits
Scan type : Progressive
Compression mode : Lossy
Bits/(Pixel*Frame) : 0.389
Stream size : 1.15 GiB (94%)
Writing library : XviD 64

Audio
ID : 1
Format : MPEG Audio
Format version : Version 1
Format profile : Layer 3
Mode : Joint stereo
Mode extension : MS Stereo
Codec ID : 55
Codec ID/Hint : MP3
Duration : 1h 20mn
Bit rate mode : Constant
Bit rate : 128 Kbps
Channel(s) : 2 channels
Sampling rate : 44.1 KHz
Compression mode : Lossy
Stream size : 73.9 MiB (6%)
Alignment : Split accross interleaves
Interleave, duration : 42 ms (1.00 video frame)


Cropped Resized Sharpened and Tweaked RGB
Video is in 3D, but not noticeable very often
42 seconds missing in 2 areas, 21 seconds each
nothing important, but take it or leave it

image
image
image
image
image
image
image

Related Torrents

torrent name size files age seed leech

Sharing Widget


Download torrent
1.24 GB
seeders:0
leechers:0
A Very Harold & Kumar 3D Christmas 2011 TS XviD - MiSTERE

Trackers

tracker name Status
http://secure.pow7.com/announce
outdated
udp://tracker.1337x.org:80/announce
outdated
http://tracker2.istole.it:6969/announce
outdated
udp://tracker.publicbt.com:80/announce
outdated
http://tracker.openbittorrent.com/announce
outdated
udp://tracker.openbittorrent.com:80/announce
outdated
http://exodus.desync.com:6969/announce
blocked
http://tracker.publicbt.com/announce
deleted
http://9.rarbg.com:2710/announce
private
http://tracker.novalayer.org:6969/announce
active
µTorrent compatible trackers list

Locations

name
KickassTorrents
ExtraTorrent
ThePirateBay
Torrent hash: af7be84043729001d16dc0fb82428a36fc3403b5

All Comments

audio
0/10
video
0/10
please, leave only comments related to that torrent
or sign-in


User Opinions

Shuvo67837.63K
chocrved48
Report a bug