(18+) Lady Ninja Kasumi, Volume 3: Secret Skills (Japanese) with Eng SubTittle x264 AC3 [therock7]

seeders: 2
leechers: 5
updated: 1 week ago
Added on Nov 27, 2012 by therock76122 in Movies
Torrent verified. Downloaded 10 times.

(18+) Lady Ninja Kasumi, Volume 3: Secret Skills (Japanese) with Eng SubTittle x264 AC3 [therock7] (Size: 908.42 MB)
  Kasumi (Chinese) with Eng SubTittle x264 AC3 [therock7].avi 908.42 MB
  Torrent downloaded from AhaShare.com.txt 59 bytes
  Torrent downloaded from extratorrent.com.txt 806 bytes
  Torrent downloaded from Kat.ph.txt 122 bytes

Description

image

Lady Ninja Kasumi, Volume 3: Secret Skills (Japanease) with Eng SubTittle

General
Complete name : Kasumi(Chinease)with Eng SubTittle x264 AC3
Format : AVI
Format/Info : Audio Video Interleave
File size : 908 MiB
Duration : 1h 13mn
Overall bit rate : 1 728 Kbps
Video
Format : AVC
Format/Info : Advanced Video Codec
Format profile : Baseline@L3.0
Format settings, CABAC : No
Format settings, ReFrames : 1 frame
Format settings, GOP : M=1, N=12
Codec ID : H264
Duration : 1h 13mn
Bit rate : 1 500 Kbps
Width : 640 pixels
Height : 480 pixels
Display aspect ratio : 4:3
Frame rate : 29.970 fps
Color space : YUV
Chroma subsampling : 4:2:0
Bit depth : 8 bits
Scan type : Progressive
Bits/(Pixel*Frame) : 0.163
Stream size : 784 MiB (86%)
Writing library : x264 core 77
Audio
ID : 1
Format : MPEG Audio
Format version : Version 1
Format profile : Layer 3
Mode : Joint stereo
Mode extension : MS Stereo
Codec ID : 55
Codec ID/Hint : MP3
Duration : 1h 13mn
Bit rate mode : Constant
Bit rate : 224 Kbps
Channel(s) : 2 channels
Sampling rate : 44.1 KHz
Compression mode : Lossy
Stream size : 118 MiB (13%)
Alignment : Aligned on interleaves
Interleave, duration : 26 ms (0.78 video frame)
Interleave, preload duration : 52 ms
Writing library : LAME3.98.2


image
image

Sharing Widget


Download torrent
908.42 MB
seeders:2
leechers:5
(18+) Lady Ninja Kasumi, Volume 3: Secret Skills (Japanese) with Eng SubTittle x264 AC3 [therock7]

Trackers

tracker name Status
udp://9.rarbg.com:2710/announce
outdated
udp://tracker.openbittorrent.com:80/announce
outdated
udp://tracker.publicbt.com:80/announce
outdated
udp://tracker.istole.it:80/announce
outdated
http://exodus.desync.com:6969/announce
blocked
http://tracker.coppersurfer.tk:6969/announce
deleted
udp://fr33dom.h33t.com:3310/announce
deleted
udp://fr33domtracker.h33t.com:3310/announce
deleted
http://www.h33t.com:3310/announce
deleted
udp://tracker.yify-torrents.com:80/announce
active
µTorrent compatible trackers list

Locations

name
KickassTorrents
ExtraTorrent
Torrent hash: 374AD88D88A91FE141B9C9428A6E39DE4546E809

Uploader Comments

0
anonymous • 29 Nov 2012, 11:32
so is this Japanese or Chinese?
0
therock76122 • 29 Nov 2012, 19:22
Uploader
sorry its Japanease
0
anonymous • 29 Nov 2012, 11:36
NOT SURE IF *insertFRYmemeHERE* JAPANESE OR CHINESE.
0
therock76122 • 29 Nov 2012, 19:22
Uploader
sorry its Japanease
1
Praky25.51K • 01 Dec 2012, 12:40
Are there subs available for this..i coudnt see any srt file?
0
therock76122 • 01 Jan 2013, 10:13
Uploader
yes with eng sub tittle

All Comments

audio
6/10
video
6/10
please, leave only comments related to that torrent
or sign-in

0
koma35518 • 15 Sep 2013, 14:01
torrent downloaded
Show comment
audio: 7video: 7
Watched this with the vlc player, not that bad. lol
0
koma35518 • 23 Aug 2013, 10:21
torrent downloaded
Show comment
Not ps3 friendly. The file is Corrupted.
0
justadrifter1268 • 21 Aug 2013, 17:56
torrent downloaded
Show comment
audio: 7video: 6
a/v quality is like VCD quality. thanks for sharing!
0
alllifeinfate6422 • 09 Apr 2013, 02:39
torrent downloaded
Show comment
audio: 7video: 5
Thanks for the torrent...but have to give it a thumb down, because of the movie itself and also its quality.
0
NickyYim70 • 10 Jan 2013, 17:03
torrent downloaded
Show comment
good
0
NickyYim70 • 10 Jan 2013, 17:02
torrent downloaded
Show comment
good
0
zainansari118 • 07 Jan 2013, 15:33
torrent downloaded
Show comment
audio: 7video: 7
ok movie inn chinese
Show More All

User Opinions

black_nighter15.77K, rajonboy6546, 1hadit12370, kam691063, avivhotshot1034, Machinist2504, amonit339, zainansari118, nytes001117, bediyev86 ... And 34 more
alllifeinfate6422, paragpan1483, A.Adhikary889, plakenoed433, melgraggs275, zmarailion109, lixeira84, caprizone66, sbpusicat9164, maddict61 ... And 3 more
Report a bug